Сердце Ангела / Angel Heart (Алан Паркер / Alan Parker) [1987, Великобритания, Канада, США, ужасы, триллер, детектив, BDRip 1080p] 2x MVO + DVO + AVO (Михалев) + Original Eng + Sub Rus, Eng 

Цитировать
Сердце Ангела / Angel Heart
Год выпуска: 1987
Страна: США
Жанр: Мистика, ужасы, триллер
Продолжительность: 01:53:11
Перевод: Профессиональный (два многоголосых, один двухголосый, один авторский (Михалев))
Русские субтитры: есть
Режиссер: Алан Паркер / Alan Parker
В ролях: Микки Рурк, Роберт Де Ниро, Лиза Боне, Шарлотт Рэмплинг-Описание: К частному детективу Гарри Ангелу (Микки Рурк) обращается некий Луис Сайфер (Роберт де Ниро) с просьбой разыскать талантливого музыканта Джонни Фэйворита. Гарри начинает расследование, однако, чем дальше продвигается он в своих поисках, тем больше загадок встречается на его пути. В то же время детектив начианет замечать детали, указывающие на странную религиозную подоплеку дела. Вскоре детектив постепенно погружается в мир вуду и сатанизма и начинает всерьез беспокоиться за свою безопасность. Каждый, у кого сыщик пытался выведать хоть какие-то сведения о пропавшем Джонни, после разговора с ним погибает.....-Доп. информация: IMDb | Коррекция дорожек и субтитров - LIZING HOME STUDIO-Качество: BDRip (1080p)
Формат: MKV
Видео кодек: H.264
Аудио кодек: DTS, AC3
Видео: MPEG-4 AVC, ~ 9058 Kбит/с, 1920x1040
Аудио:
Русский (DTS, 6 ch, 755 Кбит/с), (двухголосый, закадровый (Петр Гланц, Инна Королева))
русский (AC3, 6 ch, 384 Кбит/с), (многоголосый, закадровый (НТВ))
русский (AC3, 6 ch, 384 Кбит/с), (многоголосый, закадровый (с диска Киномании #2))
русский (AC3, 6 ch, 384 Кбит/с), (одноголосый, закадровый (Алексей Михалев))
английский (DTS, 6 ch, 755 Кбит/с)
Субтитры: Русские, английские

MediaInfo

General
Complete name                    : C:\COMPLETE\Serdce.Angela.1987.x264.BDRip.1080p.mkv
Format                           : Matroska
File size                        : 9.45 GiB
Duration                         : 1h 53mn
Overall bit rate                 : 12.0 Mbps
Movie name                       : Angel Heart 1987  BDRip 1080p
Encoded date                     : UTC 2009-09-03 07:02:36
Writing application              : mkvmerge v2.9.7 ('Tenderness') built on Jul  1 2009 18:43:35
Writing library                  : libebml v0.7.7 + libmatroska v0.8.1
Video
ID                               : 1
Format                           : AVC
Format/Info                      : Advanced Video Codec
Format profile                   : High@L4.1
Format settings, CABAC           : Yes
Format settings, ReFrames        : 4 frames
Muxing mode                      : Container profile=Unknown@4.1
Codec ID                         : V_MPEG4/ISO/AVC
Duration                         : 1h 53mn
Bit rate                         : 9 058 Kbps
Nominal bit rate                 : 9 280 Kbps
Width                            : 1 920 pixels
Height                           : 1 040 pixels
Display aspect ratio             : 16:9
Frame rate                       : 23.976 fps
Resolution                       : 24 bits
Colorimetry                      : 4:2:0
Scan type                        : Progressive
Bits/(Pixel*Frame)               : 0.189
Stream size                      : 7.15 GiB (76%)
Writing library                  : x264 core 68 r1195 5d75a9b
Encoding settings                : cabac=1 / ref=4 / deblock=1:0:0 / analyse=0x3:0x133 / me=umh / subme=7 / psy_rd=1.0:0.0 / mixed_ref=1 / me_range=16 / chroma_me=1 / trellis=1 / 8x8dct=1 / cqm=0 / deadzone=21,11 / chroma_qp_offset=-2 / threads=6 / nr=0 / decimate=1 / mbaff=0 / bframes=3 / b_pyramid=1 / b_adapt=1 / b_bias=0 / direct=1 / wpredb=1 / keyint=250 / keyint_min=25 / scenecut=40 / rc=2pass / bitrate=9280 / ratetol=1.0 / qcomp=0.60 / qpmin=10 / qpmax=51 / qpstep=4 / cplxblur=20.0 / qblur=0.5 / ip_ratio=1.40 / pb_ratio=1.30 / aq=1:1.00
Language                         : English
Audio #1
ID                               : 2
Format                           : DTS
Format/Info                      : Digital Theater Systems
Codec ID                         : A_DTS
Duration                         : 1h 53mn
Bit rate mode                    : Constant
Bit rate                         : 755 Kbps
Channel(s)                       : 6 channels
Channel positions                : Front: L C R, Surround: L R, LFE
Sampling rate                    : 48.0 KHz
Resolution                       : 24 bits
Stream size                      : 611 MiB (6%)
Title                            : DTS 5.1 двухголосый, закадровый (П.Гланц и И. Королева)
Language                         : Russian
Audio #2
ID                               : 3
Format                           : AC-3
Format/Info                      : Audio Coding 3
Codec ID                         : A_AC3
Duration                         : 1h 53mn
Bit rate mode                    : Constant
Bit rate                         : 384 Kbps
Channel(s)                       : 6 channels
Channel positions                : Front: L C R, Surround: L R, LFE
Sampling rate                    : 48.0 KHz
Stream size                      : 311 MiB (3%)
Title                            : DD 5.1 многоголосый, закадровый (НТВ+)
Language                         : Russian
Audio #3
ID                               : 4
Format                           : AC-3
Format/Info                      : Audio Coding 3
Codec ID                         : A_AC3
Duration                         : 1h 53mn
Bit rate mode                    : Constant
Bit rate                         : 384 Kbps
Channel(s)                       : 6 channels
Channel positions                : Front: L C R, Surround: L R, LFE
Sampling rate                    : 48.0 KHz
Stream size                      : 311 MiB (3%)
Title                            : DD 5.1 многоголосый, закадровый (Киномания)
Language                         : Russian
Audio #4
ID                               : 5
Format                           : AC-3
Format/Info                      : Audio Coding 3
Codec ID                         : A_AC3
Duration                         : 1h 53mn
Bit rate mode                    : Constant
Bit rate                         : 384 Kbps
Channel(s)                       : 6 channels
Channel positions                : Front: L C R, Surround: L R, LFE
Sampling rate                    : 48.0 KHz
Stream size                      : 311 MiB (3%)
Title                            : DD 5.1 одноголосый, закадровый (А. Михалев)
Language                         : Russian
Audio #5
ID                               : 6
Format                           : DTS
Format/Info                      : Digital Theater Systems
Codec ID                         : A_DTS
Duration                         : 1h 53mn
Bit rate mode                    : Constant
Bit rate                         : 755 Kbps
Channel(s)                       : 6 channels
Channel positions                : Front: L C R, Surround: L R, LFE
Sampling rate                    : 48.0 KHz
Resolution                       : 24 bits
Stream size                      : 611 MiB (6%)
Language                         : English
Text #1
ID                               : 7
Format                           : UTF-8
Codec ID                         : S_TEXT/UTF8
Codec ID/Info                    : UTF-8 Plain Text
Language                         : English
Text #2
ID                               : 8
Format                           : UTF-8
Codec ID                         : S_TEXT/UTF8
Codec ID/Info                    : UTF-8 Plain Text
Language                         : Russian

Скриншоты

Вы не можете начинать темы
Вы не можете отвечать на сообщения
Вы не можете редактировать свои сообщения
Вы не можете удалять свои сообщения
Вы не можете голосовать в опросах
Вы не можете прикреплять файлы к сообщениям
Вы можете скачивать файлы
!ВНИМАНИЕ!

Сайт не предоставляет электронные версии произведений, а занимается лишь коллекционированием и каталогизацией ссылок, присылаемых и публикуемых на форуме нашими читателями. Если вы являетесь правообладателем какого-либо представленного материала и не желаете, чтобы ссылка на него находилась в нашем каталоге, свяжитесь с нами, и мы незамедлительно удалим ее. Файлы для обмена на трекере предоставлены пользователями сайта, и администрация не несет ответственности за их содержание. Просьба не заливать файлы, защищенные авторскими правами, а также файлы нелегального содержания!

Искали программы, игры, дополнения, музыка mp3, аниме, аудио книги, журналы? Добро пожаловать на свободный торрент трекер Torrents, у нас можно скачать бесплатно, без смс и регистрации и прочих ограничений лучшие, отборные сборки программ, игр. Скачать торрентом не составит труда даже не опытному пользователю. Раздачи ежедневно обновляются, только лучшие и качественные раздачи, подробные описания и скриншоты. Огромная коллекция программ для работы со звуком, графикой, дизайном, а так же множество плагинов и инструментов к ним с подробной инструкцией и рекомендациями. Прошивки для навигаторов, карты. Разнообразные игры, для Windows, Linux. В коллекцие есть и старые игры любых жанров, Rpg, Action, Shooter, strategy Множество дополнений, модификаций, сценариев для популярных игр в жанре экш, рпг, гонки, стратегии, логические игры. Множество аддонов и сценариев для Microsoft Flight Simulator Большая коллекция книг, учебников. Если нет возможности купить печатное издание - смело скачивайте цифровую версию книги или, быть может, журнала. Не любите читать - можно загрузить бесплатно аудикнигу. Для веб дизайнеров и программистов так же найдется множество специализированного софта, таких как: редакторы с подсветкой, среды программирования, компоненты, системы управления базами данных, разнообразные скрипты и шаблоны. Не так давно у нас появился материал для автолюбителей и владельцев мото - оригинальные и неоригинальные каталоги запчастей, книги и журналы по ремонту и обслуживанию, видеоуроки, статьи по чип тюнингу, прошивкам. Процедура получения контента элементарная, достаточно просто скачать торрент файл и добавить его в загрузку в вашем торрент клиенте. Если у вас нет специального торрент клиента, вы можете его скачать у нас.

Beautiful Young Girls Teens Series Only Teens And Sexy | Flodder Forever - Eine Familie zum Knutschen | Major Crimes 8.2