Польские легенды: Операция «Василиск» / Legendy Polskie: Operacja Bazyliszek (Томек Багиньски / Tomasz Bagiński / Tomek Baginski) [2016, Польша, короткий метр, фэнтези, комедия, WEBRip 1080p] VO (NewStation) Sub Rus + Eng, Pol 

Цитировать
Польские легенды: Операция «Василиск» / Legendy Polskie: Operacja Bazyliszek
Страна: Польша
Жанр: короткий метр, фэнтези, комедия
Год выпуска: 2016
Продолжительность: 00:17:17
Перевод: Одноголосый закадровый NewStation
Автор перевода субтитров: Von Negoziant
Оригинальная аудиодорожка: польский
Режиссер: Томек Багиньски / Tomasz Bagiński / Tomek Baginski
В ролях: Павел Домагала, Олаф Любашенко, Михалина Ольшаньска
Описание: От моря до Татр разверзаются врата ада. Неизвестно, кто за этим стоит, но известно, кто в это встрял: Богусь Колодзей и его дядя Евгениуш. Эта пара суровых полицейских смело смотрит в глаза древней опасности...
Доп. информация: присутствует ненормативная лексика.
Сэмпл: http://sendfile.su/1347439
Качество видео: WEBRip
Формат видео: MKV
Видео: AVC, 1920x1080, 16:9, 25,000 кадров/сек, 1844 Кбит/сек
Аудио #1: [RUS] 48 kHz, AC-3, 2ch, ~192 kbps
Аудио #2: [POL] 44 kHz, AAC, 2ch, ~126 kbps
субтитры: русские; английские и польские

MediaInfo

Общее
Полное имя : C:\Users\Darko\Downloads\Legendy Polskie. Film Operacja Bazyliszek. Allegro.mp4
Формат : MPEG-4
Профиль формата : Base Media
Идентификатор кодека : isom (isom/iso2/avc1/mp41)
Размер файла : 244 Мбайт
Продолжительность : 17 м. 17 с.
Общий поток : 1975 Кбит/сек
Программа кодирования : Lavf57.2.100
Видео
Идентификатор : 1
Формат : AVC
Формат/Информация : Advanced Video Codec
Профиль формата : High@L4
Параметр CABAC формата : Да
Параметр RefFrames формата : 3 кадра
Идентификатор кодека : avc1
Идентификатор кодека/Информация : Advanced Video Coding
Продолжительность : 17 м. 17 с.
Битрейт : 1844 Кбит/сек
Ширина : 1920 пикселей
Высота : 1080 пикселей
Соотношение сторон : 16:9
Режим частоты кадров : Постоянный
Частота кадров : 25,000 кадров/сек
Цветовое пространство : YUV
Субдискретизация насыщенности : 4:2:0
Битовая глубина : 8 бит
Тип развёртки : Прогрессивная
Бит/(Пиксели*Кадры) : 0.036
Размер потока : 228 Мбайт (93%)
Цветовой диапазон : Limited
Основные цвета : BT.709
Характеристики трансфера : BT.709
Коэффициенты матрицы : BT.709
Аудио
Идентификатор : 2
Формат : AAC
Формат/Информация : Advanced Audio Codec
Профиль формата : LC
Идентификатор кодека : 40
Продолжительность : 17 м. 17 с.
Вид битрейта : Постоянный
Битрейт : 126 Кбит/сек
Каналы : 2 канала
Расположение каналов : Front: L R
Частота : 44,1 КГц
Частота кадров : 43,066 кадра/сек (1024 SPF)
Метод сжатия : С потерями
Размер потока : 15,5 Мбайт (6%)
Default : Да
AlternateGroup/String : 1

Скриншот c названием фильма

Скриншоты

Вы не можете начинать темы
Вы не можете отвечать на сообщения
Вы не можете редактировать свои сообщения
Вы не можете удалять свои сообщения
Вы не можете голосовать в опросах
Вы не можете прикреплять файлы к сообщениям
Вы можете скачивать файлы
!ВНИМАНИЕ!

Сайт не предоставляет электронные версии произведений, а занимается лишь коллекционированием и каталогизацией ссылок, присылаемых и публикуемых на форуме нашими читателями. Если вы являетесь правообладателем какого-либо представленного материала и не желаете, чтобы ссылка на него находилась в нашем каталоге, свяжитесь с нами, и мы незамедлительно удалим ее. Файлы для обмена на трекере предоставлены пользователями сайта, и администрация не несет ответственности за их содержание. Просьба не заливать файлы, защищенные авторскими правами, а также файлы нелегального содержания!

Искали программы, игры, дополнения, музыка mp3, аниме, аудио книги, журналы? Добро пожаловать на свободный торрент трекер Torrents, у нас можно скачать бесплатно, без смс и регистрации и прочих ограничений лучшие, отборные сборки программ, игр. Скачать торрентом не составит труда даже не опытному пользователю. Раздачи ежедневно обновляются, только лучшие и качественные раздачи, подробные описания и скриншоты. Огромная коллекция программ для работы со звуком, графикой, дизайном, а так же множество плагинов и инструментов к ним с подробной инструкцией и рекомендациями. Прошивки для навигаторов, карты. Разнообразные игры, для Windows, Linux. В коллекцие есть и старые игры любых жанров, Rpg, Action, Shooter, strategy Множество дополнений, модификаций, сценариев для популярных игр в жанре экш, рпг, гонки, стратегии, логические игры. Множество аддонов и сценариев для Microsoft Flight Simulator Большая коллекция книг, учебников. Если нет возможности купить печатное издание - смело скачивайте цифровую версию книги или, быть может, журнала. Не любите читать - можно загрузить бесплатно аудикнигу. Для веб дизайнеров и программистов так же найдется множество специализированного софта, таких как: редакторы с подсветкой, среды программирования, компоненты, системы управления базами данных, разнообразные скрипты и шаблоны. Не так давно у нас появился материал для автолюбителей и владельцев мото - оригинальные и неоригинальные каталоги запчастей, книги и журналы по ремонту и обслуживанию, видеоуроки, статьи по чип тюнингу, прошивкам. Процедура получения контента элементарная, достаточно просто скачать торрент файл и добавить его в загрузку в вашем торрент клиенте. Если у вас нет специального торрент клиента, вы можете его скачать у нас.

Pós-Apocalíptico | Lot of 100 Rusty Barn Stars 1.5 inch Rustic Primitive Country Rusted Dimensional | Ouverture de session