Однажды на Диком Западе / C\'era una volta il West (Серджио Леоне / Sergio Leone) [1968, США, Италия, вестерн, HDTVRip 1080p] MVO + Original Eng 

Цитировать
Однажды на Диком Западе / C'era una volta il West
Год выпуска: 1968
Страна: США, Италия
Жанр: Вестерн
Продолжительность: 02:45:20
Перевод: Профессиональный (многоголосый, закадровый)
Русские субтитры: нет
Режиссер: Серджио Леоне
В ролях: Генри Фонда, Клаудия Кардинале, Джейсон Робардс, Чарльз Бронсон, Габриэле Ферцетти, Паоло Стоппа, Вуди Строуд, Джек Илэм, Кинен Уинн, Фрэнк Вулф
Описание: Молодая вдова отказывается продать ферму дельцу, задумавшему проложить по этой земле железную дорогу, и тогда он заказывает ее убийство, нанимая лучшего на Диком Западе стрелка. На защиту красавицы встают известный бандит Шайен и таинственный бродяга. Трое сильных мужчин сойдутся в смертельном хороводе, выхода из которого может и не быть.
Качество: HDTVRip
Формат: MKV
Видео кодек: H.264
Аудио кодек: AC3
Видео: 1920х816, 29.970 fps, 7039 Kbps
Аудио:
Russian АС3 48.0 KHz 6 channels 640 Kbps
English АС3 48.0 KHz 6 channels 384 Kbps

Release iNFO

General
Complete name : Odnazhdy.Na.Dikom.Zapade.1968.HDTVRip_[rutracker.org].mkv
Format : Matroska
File size : 9.32 GiB
Duration : 2h 45mn
Overall bit rate : 8 066 Kbps
Encoded date : UTC 2009-05-18 21:50:19
Writing application : mkvmerge v2.8.0 ('The Tree') built on May 9 2009 18:02:06
Writing library : libebml v0.7.7 + libmatroska v0.8.1
Video
ID : 1
Format : AVC
Format/Info : Advanced Video Codec
Format profile : High@L4.1
Format settings, CABAC : Yes
Format settings, ReFrames : 3 frames
Muxing mode : Container profile=Unknown@4.1
Codec ID : V_MPEG4/ISO/AVC
Duration : 2h 45mn
Bit rate : 6 881 Kbps
Nominal bit rate : 7 039 Kbps
Width : 1 920 pixels
Height : 816 pixels
Display aspect ratio : 2.35
Frame rate : 29.970 fps
Resolution : 24 bits
Colorimetry : 4:2:0
Scan type : Progressive
Bits/(Pixel*Frame) : 0.147
Stream size : 7.94 GiB (85%)
Writing library : x264 core 67 r1145M d2e1e1c
Encoding settings : cabac=1 / ref=3 / deblock=1:0:0 / analyse=0x3:0x113 / me=umh / subme=7 / psy_rd=1.0:0.0 / mixed_ref=1 / me_range=16 / chroma_me=1 / trellis=1 / 8x8dct=1 / cqm=0 / deadzone=21,11 / chroma_qp_offset=-2 / threads=6 / nr=0 / decimate=1 / mbaff=0 / bframes=3 / b_pyramid=0 / b_adapt=2 / b_bias=0 / direct=3 / wpredb=1 / keyint=24 / keyint_min=2 / scenecut=40 / rc=2pass / bitrate=7039 / ratetol=1.0 / qcomp=0.50 / qpmin=10 / qpmax=51 / qpstep=4 / cplxblur=20.0 / qblur=0.5 / vbv_maxrate=16500 / vbv_bufsize=16500 / ip_ratio=1.10 / pb_ratio=1.10 / aq=1:1.00
Language : English
Audio #1
ID : 2
Format : AC-3
Format/Info : Audio Coding 3
Codec ID : A_AC3
Duration : 2h 45mn
Bit rate mode : Constant
Bit rate : 640 Kbps
Channel(s) : 6 channels
Channel positions : Front: L C R, Surround: L R, LFE
Sampling rate : 48.0 KHz
Video delay : 6ms
Stream size : 757 MiB (8%)
Title : Mnogogolosyj
Language : Russian
Audio #2
ID : 3
Format : AC-3
Format/Info : Audio Coding 3
Codec ID : A_AC3
Duration : 2h 45mn
Bit rate mode : Constant
Bit rate : 384 Kbps
Channel(s) : 6 channels
Channel positions : Front: L C R, Surround: L R, LFE
Sampling rate : 48.0 KHz
Stream size : 454 MiB (5%)
Language : English

Скриншоты

Вы не можете начинать темы
Вы не можете отвечать на сообщения
Вы не можете редактировать свои сообщения
Вы не можете удалять свои сообщения
Вы не можете голосовать в опросах
Вы не можете прикреплять файлы к сообщениям
Вы можете скачивать файлы
!ВНИМАНИЕ!

Сайт не предоставляет электронные версии произведений, а занимается лишь коллекционированием и каталогизацией ссылок, присылаемых и публикуемых на форуме нашими читателями. Если вы являетесь правообладателем какого-либо представленного материала и не желаете, чтобы ссылка на него находилась в нашем каталоге, свяжитесь с нами, и мы незамедлительно удалим ее. Файлы для обмена на трекере предоставлены пользователями сайта, и администрация не несет ответственности за их содержание. Просьба не заливать файлы, защищенные авторскими правами, а также файлы нелегального содержания!

Искали программы, игры, дополнения, музыка mp3, аниме, аудио книги, журналы? Добро пожаловать на свободный торрент трекер Torrents, у нас можно скачать бесплатно, без смс и регистрации и прочих ограничений лучшие, отборные сборки программ, игр. Скачать торрентом не составит труда даже не опытному пользователю. Раздачи ежедневно обновляются, только лучшие и качественные раздачи, подробные описания и скриншоты. Огромная коллекция программ для работы со звуком, графикой, дизайном, а так же множество плагинов и инструментов к ним с подробной инструкцией и рекомендациями. Прошивки для навигаторов, карты. Разнообразные игры, для Windows, Linux. В коллекцие есть и старые игры любых жанров, Rpg, Action, Shooter, strategy Множество дополнений, модификаций, сценариев для популярных игр в жанре экш, рпг, гонки, стратегии, логические игры. Множество аддонов и сценариев для Microsoft Flight Simulator Большая коллекция книг, учебников. Если нет возможности купить печатное издание - смело скачивайте цифровую версию книги или, быть может, журнала. Не любите читать - можно загрузить бесплатно аудикнигу. Для веб дизайнеров и программистов так же найдется множество специализированного софта, таких как: редакторы с подсветкой, среды программирования, компоненты, системы управления базами данных, разнообразные скрипты и шаблоны. Не так давно у нас появился материал для автолюбителей и владельцев мото - оригинальные и неоригинальные каталоги запчастей, книги и журналы по ремонту и обслуживанию, видеоуроки, статьи по чип тюнингу, прошивкам. Процедура получения контента элементарная, достаточно просто скачать торрент файл и добавить его в загрузку в вашем торрент клиенте. Если у вас нет специального торрент клиента, вы можете его скачать у нас.

The Fits (2015) | Generic Gift Bundle Of DZ09 Smart Watch Phone With Free Bluetooth headset and selfie stick - Silver Black -68% KSh 1,935 KSh 6,000 (111) Buy now | LindaCaldwell