Сверкающие седла / Blazing Saddles (Мел Брукс / Mel Brooks) [1974, США, комедия, вестерн, BDRip 1080p] 2x AVO + Original Eng 

Цитировать
Сверкающие седла / Blazing Saddles
Год выпуска: 1974
Страна: США
Жанр: Комедия, вестерн
Продолжительность: 01:32:51
Перевод:
1. Авторский (одноголосый) - А. Михалев
2. Авторский (одноголосый) - В. Горчаков
Режиссер: Мел Брукс
В ролях: Кливон Литтл, Джин Уайлдер, Слим Пикенс, Дэвид Хаддлстон, Лиам Данн, Алекс Кэррас, Джон Хиллерман, Джордж Ферт, Джек Старретт, Мел Брукс
Описание: Железная дорога должна пройти через городок Рок Ридж. Но как выгнать местных жителей из города, если хочешь украсть у них землю? Заслать самую отчаянную банду головорезов… и назначить нового чернокожего шерифа, который протянет не больше суток.
Качество: BDRip
Формат: MKV
Видео кодек: H.264
Аудио кодек: AC3
Видео: 1920x800, 23.976 fps, 9473 Kbps
Аудио:
Russian АС3 48.0 KHz 2 channels 224 Kbps - А. Михалев
Russian АС3 48.0 KHz 2 channels 224 Kbps - В. Горчаков
English АС3 48.0 KHz 6 channels 640 Kbps

Release iNFO

General
Complete name : Sverkajuschie.Sedla.1974.BDRip_[rutracker.org].mkv
Format : Matroska
File size : 6.85 GiB
Duration : 1h 32mn
Overall bit rate : 10.6 Mbps
Encoded date : UTC 2009-05-07 20:34:53
Writing application : mkvmerge v2.6.0 ('Kelly watch the Stars') built on Mar 24 2009 15:23:17
Writing library : libebml v0.7.7 + libmatroska v0.8.1
Video
ID : 1
Format : AVC
Format/Info : Advanced Video Codec
Format profile : High@L5.1
Format settings, CABAC : Yes
Format settings, ReFrames : 6 frames
Muxing mode : Container profile=Unknown@5.1
Codec ID : V_MPEG4/ISO/AVC
Duration : 1h 32mn
Bit rate : 9 266 Kbps
Nominal bit rate : 9 473 Kbps
Width : 1 920 pixels
Height : 800 pixels
Display aspect ratio : 2.400
Frame rate : 23.976 fps
Resolution : 24 bits
Colorimetry : 4:2:0
Scan type : Progressive
Bits/(Pixel*Frame) : 0.252
Stream size : 6.00 GiB (88%)
Writing library : x264 core 55
Encoding settings : cabac=1 / ref=3 / deblock=1:0:0 / analyse=0x3:0x133 / me=hex / subme=6 / brdo=0 / mixed_ref=0 / me_range=16 / chroma_me=1 / trellis=1 / 8x8dct=1 / cqm=2 / deadzone=21,11 / chroma_qp_offset=0 / threads=3 / nr=0 / decimate=1 / mbaff=0 / bframes=3 / b_pyramid=1 / b_adapt=1 / b_bias=0 / direct=3 / wpredb=1 / bime=0 / keyint=250 / keyint_min=25 / scenecut=40(pre) / rc=2pass / bitrate=9473 / ratetol=4.0 / rceq='blurCplx^(1-qComp)' / qcomp=0.60 / qpmin=10 / qpmax=51 / qpstep=4 / cplxblur=20.0 / qblur=0.5 / ip_ratio=1.40 / pb_ratio=1.30
Language : English
Audio #1
ID : 2
Format : AC-3
Format/Info : Audio Coding 3
Codec ID : A_AC3
Duration : 1h 32mn
Bit rate mode : Constant
Bit rate : 224 Kbps
Channel(s) : 2 channels
Channel positions : L R
Sampling rate : 48.0 KHz
Video delay : 2s 750ms
Stream size : 149 MiB (2%)
Title : Mihalev
Language : Russian
Audio #2
ID : 3
Format : AC-3
Format/Info : Audio Coding 3
Codec ID : A_AC3
Duration : 1h 32mn
Bit rate mode : Constant
Bit rate : 224 Kbps
Channel(s) : 2 channels
Channel positions : L R
Sampling rate : 48.0 KHz
Video delay : 2s 750ms
Stream size : 149 MiB (2%)
Title : Gorchakov
Language : Russian
Audio #3
ID : 4
Format : AC-3
Format/Info : Audio Coding 3
Codec ID : A_AC3
Duration : 1h 32mn
Bit rate mode : Constant
Bit rate : 640 Kbps
Channel(s) : 6 channels
Channel positions : Front: L C R, Surround: L R, LFE
Sampling rate : 48.0 KHz
Stream size : 425 MiB (6%)
Language : English

Скриншоты

Вы не можете начинать темы
Вы не можете отвечать на сообщения
Вы не можете редактировать свои сообщения
Вы не можете удалять свои сообщения
Вы не можете голосовать в опросах
Вы не можете прикреплять файлы к сообщениям
Вы можете скачивать файлы
!ВНИМАНИЕ!

Сайт не предоставляет электронные версии произведений, а занимается лишь коллекционированием и каталогизацией ссылок, присылаемых и публикуемых на форуме нашими читателями. Если вы являетесь правообладателем какого-либо представленного материала и не желаете, чтобы ссылка на него находилась в нашем каталоге, свяжитесь с нами, и мы незамедлительно удалим ее. Файлы для обмена на трекере предоставлены пользователями сайта, и администрация не несет ответственности за их содержание. Просьба не заливать файлы, защищенные авторскими правами, а также файлы нелегального содержания!

Искали программы, игры, дополнения, музыка mp3, аниме, аудио книги, журналы? Добро пожаловать на свободный торрент трекер Torrents, у нас можно скачать бесплатно, без смс и регистрации и прочих ограничений лучшие, отборные сборки программ, игр. Скачать торрентом не составит труда даже не опытному пользователю. Раздачи ежедневно обновляются, только лучшие и качественные раздачи, подробные описания и скриншоты. Огромная коллекция программ для работы со звуком, графикой, дизайном, а так же множество плагинов и инструментов к ним с подробной инструкцией и рекомендациями. Прошивки для навигаторов, карты. Разнообразные игры, для Windows, Linux. В коллекцие есть и старые игры любых жанров, Rpg, Action, Shooter, strategy Множество дополнений, модификаций, сценариев для популярных игр в жанре экш, рпг, гонки, стратегии, логические игры. Множество аддонов и сценариев для Microsoft Flight Simulator Большая коллекция книг, учебников. Если нет возможности купить печатное издание - смело скачивайте цифровую версию книги или, быть может, журнала. Не любите читать - можно загрузить бесплатно аудикнигу. Для веб дизайнеров и программистов так же найдется множество специализированного софта, таких как: редакторы с подсветкой, среды программирования, компоненты, системы управления базами данных, разнообразные скрипты и шаблоны. Не так давно у нас появился материал для автолюбителей и владельцев мото - оригинальные и неоригинальные каталоги запчастей, книги и журналы по ремонту и обслуживанию, видеоуроки, статьи по чип тюнингу, прошивкам. Процедура получения контента элементарная, достаточно просто скачать торрент файл и добавить его в загрузку в вашем торрент клиенте. Если у вас нет специального торрент клиента, вы можете его скачать у нас.

Alien Abduction | 11.12.1523:04 Uhr Home Alone- 25th: Anniversary Edition (Remastered) Soundtrack256 kbit/s 0 / 05.409 Hits VID P2P DDL 0 Kommentare | سمارت هوم هيلث