Польские легенды: Твардовски 2.0 / Legendy Polskie: Twardowsky 2.0 (Томек Багиньски / Tomasz Bagiński / Tomek Baginski) [2016, Польша, короткий метр, фэнтези, комедия, WEBRip 1080p] VO (NewStation) Sub Rus + Eng, Pol 

Цитировать
Польские легенды: Твардовски 2.0 / Legendy Polskie: Twardowsky 2.0
Страна: Польша
Жанр: короткий метр, фэнтези, комедия
Год выпуска: 2016
Продолжительность: 00:20:20
Перевод: Одноголосый закадровый NewStation
Автор перевода субтитров: Von Negoziant
Оригинальная аудиодорожка: польский
Режиссер: Томек Багиньски / Tomasz Bagiński / Tomek Baginski
В ролях: Роберт Венцкевич, Александра Каспшик, Томаш Драбек, Пётр Махалица
Описание: Однако дьявол Борута и его посланница так просто не сдаются. Новейшие достижения техники против отчаянного поляка. Победитель может быть только один!
Доп. информация: Присутствует ненормативная лексика.
Сэмпл: http://sendfile.su/1347439
Качество видео: WEBRip
Формат видео: MKV
Видео: AVC, 1920x1080, 16:9, 25,000 кадров/сек, 1759 Кбит/сек
Аудио #1: [RUS] 48 kHz, MP3, 2ch, ~192 kbps
Аудио #2: [POL] 44 kHz, AAC, 2ch, ~126 kbps
субтитры: русские; английские и польские

MediaInfo

Общее
Уникальный идентификатор : 171116625138171387720023938347486646426 (0x80BBDCFCE0B76C219059F3E10A93909A)
Полное имя : D:\NewStation\Польские Легенды\Legendy Polskie TWARDOWSKY 2.0 - NewStation.mkv
Формат : Matroska
Версия формата : Version 4 / Version 2
Размер файла : 302 Мбайт
Продолжительность : 20 м. 20 с.
Общий поток : 2079 Кбит/сек
Дата кодирования : UTC 2017-07-20 15:50:50
Программа кодирования : mkvmerge v12.0.0 ('Trust / Lust') 32bit
Библиотека кодирования : libebml v1.3.4 + libmatroska v1.4.5
Видео
Идентификатор : 1
Формат : AVC
Формат/Информация : Advanced Video Codec
Профиль формата : High@L4
Параметр CABAC формата : Да
Параметр RefFrames формата : 3 кадра
Идентификатор кодека : V_MPEG4/ISO/AVC
Продолжительность : 20 м. 20 с.
Битрейт : 1759 Кбит/сек
Ширина : 1920 пикселей
Высота : 1080 пикселей
Соотношение сторон : 16:9
Режим частоты кадров : Постоянный
Частота кадров : 25,000 кадров/сек
Цветовое пространство : YUV
Субдискретизация насыщенности : 4:2:0
Битовая глубина : 8 бит
Тип развёртки : Прогрессивная
Бит/(Пиксели*Кадры) : 0.034
Размер потока : 256 Мбайт (85%)
Default : Да
Forced : Нет
Цветовой диапазон : Limited
Основные цвета : BT.709
Характеристики трансфера : BT.709
Коэффициенты матрицы : BT.709
Аудио #1
Идентификатор : 2
Формат : MPEG Audio
Версия формата : Version 1
Профиль формата : Layer 3
Идентификатор кодека : A_MPEG/L3
Идентификатор кодека/Подсказка : MP3
Продолжительность : 20 м. 20 с.
Вид битрейта : Постоянный
Битрейт : 192 Кбит/сек
Каналы : 2 канала
Частота : 48,0 КГц
Частота кадров : 41,667 кадра/сек (1152 SPF)
Метод сжатия : С потерями
Размер потока : 27,9 Мбайт (9%)
Default : Да
Forced : Нет
Аудио #2
Идентификатор : 3
Формат : AAC
Формат/Информация : Advanced Audio Codec
Профиль формата : LC
Идентификатор кодека : A_AAC
Продолжительность : 20 м. 20 с.
Битрейт : 126 Кбит/сек
Каналы : 2 канала
Расположение каналов : Front: L R
Частота : 44,1 КГц
Частота кадров : 43,066 кадра/сек (1024 SPF)
Метод сжатия : С потерями
Размер потока : 18,3 Мбайт (6%)
Заголовок : Original
Default : Нет
Forced : Нет
Текст #1
Идентификатор : 4
Формат : UTF-8
Идентификатор кодека : S_TEXT/UTF8
Идентификатор кодека/Информация : UTF-8 Plain Text
Продолжительность : 20 м. 13 с.
Битрейт : 68 бит/сек
ElementCount : 174
Размер потока : 10,2 Кбайт (0%)
Заголовок : Rus
Default : Да
Forced : Нет
Текст #2
Идентификатор : 5
Формат : UTF-8
Идентификатор кодека : S_TEXT/UTF8
Идентификатор кодека/Информация : UTF-8 Plain Text
Продолжительность : 20 м. 9 с.
Битрейт : 34 бит/сек
ElementCount : 160
Размер потока : 5,07 Кбайт (0%)
Заголовок : Eng
Default : Нет
Forced : Нет
Текст #3
Идентификатор : 6
Формат : UTF-8
Идентификатор кодека : S_TEXT/UTF8
Идентификатор кодека/Информация : UTF-8 Plain Text
Продолжительность : 19 м. 54 с.
Битрейт : 43 бит/сек
ElementCount : 153
Размер потока : 6,38 Кбайт (0%)
Заголовок : Pol
Default : Нет
Forced : Нет

Скриншот c названием фильма

Скриншоты

Вы не можете начинать темы
Вы не можете отвечать на сообщения
Вы не можете редактировать свои сообщения
Вы не можете удалять свои сообщения
Вы не можете голосовать в опросах
Вы не можете прикреплять файлы к сообщениям
Вы можете скачивать файлы
!ВНИМАНИЕ!

Сайт не предоставляет электронные версии произведений, а занимается лишь коллекционированием и каталогизацией ссылок, присылаемых и публикуемых на форуме нашими читателями. Если вы являетесь правообладателем какого-либо представленного материала и не желаете, чтобы ссылка на него находилась в нашем каталоге, свяжитесь с нами, и мы незамедлительно удалим ее. Файлы для обмена на трекере предоставлены пользователями сайта, и администрация не несет ответственности за их содержание. Просьба не заливать файлы, защищенные авторскими правами, а также файлы нелегального содержания!

Искали программы, игры, дополнения, музыка mp3, аниме, аудио книги, журналы? Добро пожаловать на свободный торрент трекер Torrents, у нас можно скачать бесплатно, без смс и регистрации и прочих ограничений лучшие, отборные сборки программ, игр. Скачать торрентом не составит труда даже не опытному пользователю. Раздачи ежедневно обновляются, только лучшие и качественные раздачи, подробные описания и скриншоты. Огромная коллекция программ для работы со звуком, графикой, дизайном, а так же множество плагинов и инструментов к ним с подробной инструкцией и рекомендациями. Прошивки для навигаторов, карты. Разнообразные игры, для Windows, Linux. В коллекцие есть и старые игры любых жанров, Rpg, Action, Shooter, strategy Множество дополнений, модификаций, сценариев для популярных игр в жанре экш, рпг, гонки, стратегии, логические игры. Множество аддонов и сценариев для Microsoft Flight Simulator Большая коллекция книг, учебников. Если нет возможности купить печатное издание - смело скачивайте цифровую версию книги или, быть может, журнала. Не любите читать - можно загрузить бесплатно аудикнигу. Для веб дизайнеров и программистов так же найдется множество специализированного софта, таких как: редакторы с подсветкой, среды программирования, компоненты, системы управления базами данных, разнообразные скрипты и шаблоны. Не так давно у нас появился материал для автолюбителей и владельцев мото - оригинальные и неоригинальные каталоги запчастей, книги и журналы по ремонту и обслуживанию, видеоуроки, статьи по чип тюнингу, прошивкам. Процедура получения контента элементарная, достаточно просто скачать торрент файл и добавить его в загрузку в вашем торрент клиенте. Если у вас нет специального торрент клиента, вы можете его скачать у нас.

Down on Me (Man of the Month #1) by J. Kenner | Cepillo de Dientes Eléctrico Braun Oral-B Advance Power - Pilas incluidas | IObit Malware Fighter Pro 6 2 0 4770 + Crack [CracksMind]