Тайны Смолвиля / Smallville / Сезон: 9 / Серии: 1-22 (22) (Кевин Фэйр) [2009-2010, США, фантастика, DVDRip] (Babun) + Original 

Цитировать
Тайны Смолвиля / Smallville
Сезон 9, серии 1-22 (22)

Год выпуска: 2009-2010гг.
Страна: США
Жанр: фантастика
Продолжительность: 00:42:15
Перевод: Любительский одноголосый закадровый (Babun)
Русские субтитры: нет
Субтитры: отсутствуют
Режиссёр: Кевин Фэйр
В ролях: Том Уэллинг, Элиссон Мэк, Эрика Дюранс, Брайн Остин Грин, Джастин Хартли и Каллум Блю
Описание: После событий восьмого сезона Кларк берет на себя бремя защитника Метрополиса, скрываясь под маской Красно-Синего Пятна, он остается в тени, передвигаясь с невероятной скоростью и путешествуя по крышам, он становится известным как "Пятно". В то же время идет и внутренняя борьба Кларка – он чувствует что должен совершить выбор между своим криптонским наследием и человеческой природой, ведь в этом году ему предстоит столкнуться с самыми сильными врагами вселенной комиксов.
Доп. информация: постер, список актёров, описание и исходный звук взяты из этой раздачи: http://rutracker.org/forum/viewtopic.php?t=2256209
Ссылка на предыдущие и альтернативные раздачи: http://rutracker.org/forum/tracker.php?f=497&nm=Smallville
Сравнение скриншотов HDTVRip vs. DVDRip: http://screenshotcomparison.com/comparison/151921
Сэмпл: http://multi-up.com/776085
Качество: DVDRip
Формат: AVI
Видео кодек: XviD
Аудио кодек: AC3, MP3
Видео: XviD, 624x352, 23.976 fps, 1019 kbps, 0.194 bit/pixel
Аудио 1 (Рус.): AC3, 48000Hz, 2 ch, 192 kbps
Аудио 2 (Eng.): MP3, 48000Hz, 2 ch, 128 kbps (VBR)

MI

Format : AVI
Format/Info : Audio Video Interleave
File size : 410 MiB
Duration : 42mn 17s
Overall bit rate : 1 355 Kbps
Writing application : VirtualDubMod 1.5.10.1 (build 2439/release)
Writing library : VirtualDubMod build 2439/release
Video
ID : 0
Format : MPEG-4 Visual
Format profile : Advanced Simple@L5
Format settings, BVOP : Yes
Format settings, QPel : No
Format settings, GMC : No warppoints
Format settings, Matrix : Default (H.263)
Codec ID : XVID
Codec ID/Hint : XviD
Duration : 42mn 17s
Bit rate : 1 019 Kbps
Width : 624 pixels
Height : 352 pixels
Display aspect ratio : 16:9
Frame rate : 23.976 fps
Color space : YUV
Chroma subsampling : 4:2:0
Bit depth : 8 bits
Scan type : Progressive
Bits/(Pixel*Frame) : 0.194
Stream size : 308 MiB (75%)
Writing library : XviD 1.2.1 (UTC 2008-12-04)
Audio #1
ID : 1
Format : AC-3
Format/Info : Audio Coding 3
Mode extension : CM (complete main)
Codec ID : 2000
Duration : 42mn 17s
Bit rate mode : Constant
Bit rate : 192 Kbps
Channel(s) : 2 channels
Channel positions : Front: L R
Sampling rate : 48.0 KHz
Bit depth : 16 bits
Stream size : 58.1 MiB (14%)
Alignment : Aligned on interleaves
Interleave, duration : 42 ms (1.00 video frame)
Interleave, preload duration : 512 ms
Audio #2
ID : 2
Format : MPEG Audio
Format version : Version 1
Format profile : Layer 3
Mode : Joint stereo
Mode extension : MS Stereo
Codec ID : 55
Codec ID/Hint : MP3
Duration : 42mn 17s
Bit rate mode : Variable
Bit rate : 128 Kbps
Channel(s) : 2 channels
Sampling rate : 48.0 KHz
Stream size : 38.3 MiB (9%)
Alignment : Aligned on interleaves
Interleave, duration : 24 ms (0.58 video frame)
Interleave, preload duration : 145 ms
Writing library : LAME3.90.
Encoding settings : -m j -V 4 -q 2 -lowpass 17.6 --abr 128

Скриншоты

Вы не можете начинать темы
Вы не можете отвечать на сообщения
Вы не можете редактировать свои сообщения
Вы не можете удалять свои сообщения
Вы не можете голосовать в опросах
Вы не можете прикреплять файлы к сообщениям
Вы можете скачивать файлы
!ВНИМАНИЕ!

Сайт не предоставляет электронные версии произведений, а занимается лишь коллекционированием и каталогизацией ссылок, присылаемых и публикуемых на форуме нашими читателями. Если вы являетесь правообладателем какого-либо представленного материала и не желаете, чтобы ссылка на него находилась в нашем каталоге, свяжитесь с нами, и мы незамедлительно удалим ее. Файлы для обмена на трекере предоставлены пользователями сайта, и администрация не несет ответственности за их содержание. Просьба не заливать файлы, защищенные авторскими правами, а также файлы нелегального содержания!

Искали программы, игры, дополнения, музыка mp3, аниме, аудио книги, журналы? Добро пожаловать на свободный торрент трекер Torrents, у нас можно скачать бесплатно, без смс и регистрации и прочих ограничений лучшие, отборные сборки программ, игр. Скачать торрентом не составит труда даже не опытному пользователю. Раздачи ежедневно обновляются, только лучшие и качественные раздачи, подробные описания и скриншоты. Огромная коллекция программ для работы со звуком, графикой, дизайном, а так же множество плагинов и инструментов к ним с подробной инструкцией и рекомендациями. Прошивки для навигаторов, карты. Разнообразные игры, для Windows, Linux. В коллекцие есть и старые игры любых жанров, Rpg, Action, Shooter, strategy Множество дополнений, модификаций, сценариев для популярных игр в жанре экш, рпг, гонки, стратегии, логические игры. Множество аддонов и сценариев для Microsoft Flight Simulator Большая коллекция книг, учебников. Если нет возможности купить печатное издание - смело скачивайте цифровую версию книги или, быть может, журнала. Не любите читать - можно загрузить бесплатно аудикнигу. Для веб дизайнеров и программистов так же найдется множество специализированного софта, таких как: редакторы с подсветкой, среды программирования, компоненты, системы управления базами данных, разнообразные скрипты и шаблоны. Не так давно у нас появился материал для автолюбителей и владельцев мото - оригинальные и неоригинальные каталоги запчастей, книги и журналы по ремонту и обслуживанию, видеоуроки, статьи по чип тюнингу, прошивкам. Процедура получения контента элементарная, достаточно просто скачать торрент файл и добавить его в загрузку в вашем торрент клиенте. Если у вас нет специального торрент клиента, вы можете его скачать у нас.

Pacific Rim Insurreccion 3D BluRay 3D 1080p | Loving Pablo BluRay MicroHD | Volkswagen Golf Marque 5 Diesel Automatique