Тайны Смолвиля / Smallville / Сезон 8 / Серии 1-22 (22) (Альфред Гоф, Майлз Миллар) [2008-2009, США, Канада, фантастика, драма, HDRip] MVO (СТС) + Original 

Цитировать
-Тайны Смолвиля / SmallvilleСезон 8, Серии 1-22-- Год выпуска: 2008-2009
Страна: США, Канада
Жанр: Фантастика, Приключения, Молодёжная драма
Продолжительность: ~ 00:42:00 x 22
Перевод: Профессиональный (многоголосый, закадровый) СТС
Субтитры: отсутствуют-В ролях: Том Уэллинг / Tom Welling, Эллисон Мэк / Allison Mack, Эрика Дюранс / Erica Durance, Аарон Эшмор / Aaron Ashmore, Кэссиди Фриман / Cassidy Freeman, Сэм Уитвер / Sam Witwer, Джастин Хартли / Justin Hartley-Описание: "Тайны Смолвиля" - новый фантастический сериал о Супермэне.
На этот раз сюжет сфокусирован на подростковом периоде жизни Кларка Кента. Всё начинается с того, что в 1989 году, после метеоритного дождя в городе Смолвиль появляется маленький ребёнок - Кларк Кент.
Наши дни. Кларк учится в школе. Его удивительные способности заставляют, всё чаше задуматься о том кто он есть. К тому же он увлечён свое одноклассницей - Ланой Лэнг, чьи родители погибли во время метеоритного дождя. Это обстоятельство существенно осложняет их взаимоотношения. Заботливые родители Кларка пытаются любым путём сохранить его тайну, даже запрещают ему играть в школьной футбольной команде.
Однажды Кларк спасает жизнь молодого бизнесмена Лекса Лютера, когда его машина, потеряв управление, падает с моста в реку. С этого момента и начинается череда разных приключений Кларка.-Рип: Мосенька
Звук предоставил: Dason989
Работа со звуком: Tom Soyer
Релиз: -Все раздачи сериала: -Сэмпл: http://multi-up.com/835686
Качество: HDRip
Формат: AVI
Видео кодек: XviD
Аудио кодек: MP3
Видео: 624x352, 23.976 fps, ~ 1 000 kbps, 0.201 b/p
Аудио 1: MP3, 48 KHz, 2 ch, 128 kbps [Русский, СТС]
Аудио 2: MP3, 48 KHz, 2 ch, 128 kbps [Английский]-

MI

General
Complete name : smallville.s08e01.Odyssey.hdrip.rus.mvo.eng.avi
Format : AVI
Format/Info : Audio Video Interleave
File size : 401 MiB
Duration : 42mn 40s
Overall bit rate : 1 314 Kbps
Writing application : VirtualDubMod 1.5.10.2 (build 2540/release)
Writing library : VirtualDubMod build 2540/release
Video
ID : 0
Format : MPEG-4 Visual
Format profile : Advanced Simple@L5
Format settings, BVOP : 1
Format settings, QPel : No
Format settings, GMC : No warppoints
Format settings, Matrix : Default (H.263)
Codec ID : XVID
Codec ID/Hint : XviD
Duration : 42mn 40s
Bit rate : 1 044 Kbps
Width : 624 pixels
Height : 352 pixels
Display aspect ratio : 16:9
Frame rate : 23.976 fps
Color space : YUV
Chroma subsampling : 4:2:0
Bit depth : 8 bits
Scan type : Progressive
Compression mode : Lossy
Bits/(Pixel*Frame) : 0.198
Stream size : 319 MiB (79%)
Writing library : XviD 63
Audio #1
ID : 1
Format : MPEG Audio
Format version : Version 1
Format profile : Layer 3
Mode : Joint stereo
Mode extension : MS Stereo
Codec ID : 55
Codec ID/Hint : MP3
Duration : 42mn 40s
Bit rate mode : Constant
Bit rate : 128 Kbps
Channel(s) : 2 channels
Sampling rate : 48.0 KHz
Compression mode : Lossy
Stream size : 39.1 MiB (10%)
Alignment : Aligned on interleaves
Interleave, duration : 42 ms (1.00 video frame)
Interleave, preload duration : 504 ms
Audio #2
ID : 2
Format : MPEG Audio
Format version : Version 1
Format profile : Layer 3
Mode : Joint stereo
Mode extension : MS Stereo
Codec ID : 55
Codec ID/Hint : MP3
Duration : 42mn 40s
Bit rate mode : Constant
Bit rate : 128 Kbps
Channel(s) : 2 channels
Sampling rate : 48.0 KHz
Compression mode : Lossy
Stream size : 39.1 MiB (10%)
Alignment : Aligned on interleaves
Interleave, duration : 42 ms (1.00 video frame)
Interleave, preload duration : 504 ms
Writing library : LAME3.99r
Encoding settings : -m j -V 4 -q 2 -lowpass 17 -b 128
-
-

Внимание! Раздача ведётся путём добавления новых серий

Внимание! Раздача ведётся путём добавления новых серий; при каждом добавлении создётся новый торрент. Чтобы начать докачку новой серии, пользователям необходимо сделать следующее:
  • Остановить скачивание.
  • Удалить старый торрент у себя из клиента (старые серии удалять не надо).
  • Скачать новый торрент и запустить его у себя в клиенте вместо старого, при этом указать клиенту путь в старую папку куда и должно происходить скачивание новых серий.
Ваш клиент при этом должен произвести хеширование (проверку) старой папки (если не производит сам - помогите ему сделать это), и будет докачивать только те серии которых у вас ещё нет. Старые серии при этом не удаляются, а продолжают раздаваться!
Eсли вы уже удалили старые серии, то предотвратить повторную закачку старых серий можно, отжав галочку в соответсвующих местах при запуске нового торрента. По возможности, желательно не удалять старые серии как можно дольше чтобы релизёр не столько продолжал раздавать старые серии, а смог сконцентрироваться на новых.
-Торрент обновлен. Добавлена 22 серия-
Вы не можете начинать темы
Вы не можете отвечать на сообщения
Вы не можете редактировать свои сообщения
Вы не можете удалять свои сообщения
Вы не можете голосовать в опросах
Вы не можете прикреплять файлы к сообщениям
Вы можете скачивать файлы
!ВНИМАНИЕ!

Сайт не предоставляет электронные версии произведений, а занимается лишь коллекционированием и каталогизацией ссылок, присылаемых и публикуемых на форуме нашими читателями. Если вы являетесь правообладателем какого-либо представленного материала и не желаете, чтобы ссылка на него находилась в нашем каталоге, свяжитесь с нами, и мы незамедлительно удалим ее. Файлы для обмена на трекере предоставлены пользователями сайта, и администрация не несет ответственности за их содержание. Просьба не заливать файлы, защищенные авторскими правами, а также файлы нелегального содержания!

Искали программы, игры, дополнения, музыка mp3, аниме, аудио книги, журналы? Добро пожаловать на свободный торрент трекер Torrents, у нас можно скачать бесплатно, без смс и регистрации и прочих ограничений лучшие, отборные сборки программ, игр. Скачать торрентом не составит труда даже не опытному пользователю. Раздачи ежедневно обновляются, только лучшие и качественные раздачи, подробные описания и скриншоты. Огромная коллекция программ для работы со звуком, графикой, дизайном, а так же множество плагинов и инструментов к ним с подробной инструкцией и рекомендациями. Прошивки для навигаторов, карты. Разнообразные игры, для Windows, Linux. В коллекцие есть и старые игры любых жанров, Rpg, Action, Shooter, strategy Множество дополнений, модификаций, сценариев для популярных игр в жанре экш, рпг, гонки, стратегии, логические игры. Множество аддонов и сценариев для Microsoft Flight Simulator Большая коллекция книг, учебников. Если нет возможности купить печатное издание - смело скачивайте цифровую версию книги или, быть может, журнала. Не любите читать - можно загрузить бесплатно аудикнигу. Для веб дизайнеров и программистов так же найдется множество специализированного софта, таких как: редакторы с подсветкой, среды программирования, компоненты, системы управления базами данных, разнообразные скрипты и шаблоны. Не так давно у нас появился материал для автолюбителей и владельцев мото - оригинальные и неоригинальные каталоги запчастей, книги и журналы по ремонту и обслуживанию, видеоуроки, статьи по чип тюнингу, прошивкам. Процедура получения контента элементарная, достаточно просто скачать торрент файл и добавить его в загрузку в вашем торрент клиенте. Если у вас нет специального торрент клиента, вы можете его скачать у нас.

Maximum Games | Rajma Chawal | Lost Girl