Тайны Смолвиля / Smallville / Сезон 10 / Серии 1-22 (22) (Кевин Фэир / Kevin Fair) [2010-2011, США, Канада, фантастика, драма, HDRip 400p] MVO (Smart`s Studios) + Original + Subs (Rus, Eng) 

Цитировать
Тайны Смолвиля / Smallville
Сезон 10, Серии 01-22
- Год выпуска: 2010-2011
Страна: США, Канада
Жанр: фантастика, драма
Продолжительность: ~ 00:42:00 x 20 + 01:24:00 x 1
Перевод: Любительский (многоголосый, закадровый) [Smart`s Studios]
Субтитры: есть - русские ([swan]), английские
Режиссёр: Кевин Фэир (Kevin Fair)
В ролях: Том Уэллинг / Tom Welling, Эрика Дюранс / Erica Durance, Кэсиди Фримен / Cassidy Freeman, Джастин Хартли / Justin Hartley, Эллисон Мэк / Allison Mack
Описание: Здесь начинается начало конца. Вступая в свой десятый и заключительный сезон, эта современная интерпретация легендарного происхождения героя продолжает смешивать реализм, действие, романтику и юмор в то время, как Кларк Кент (Том Уэллинг) стремится к своему предназначению.
Кларк вышел из своего самого темного часа, чтобы найти путь к своей судьбе, заслоненный призраками прошлого - тени настоящего пытаются заманить Кларка назад в темноту на каждом шагу. Несмотря на непреодолимые разногласия, достаточно ли силен Кларк, чтобы выбрать свет и занять свое законное место самого могущественного защитника Земли?
-
Релиз:
Рип: 12kiril&ЛП
Перевод: swan (Smart`s Studios)
Озвучка: Релиз-группа Smart`s Studios
Перевод субтитров: swan
Работа со звуком и тайминг субтитров: Tom Soyer
-
Все раздачи сериала / КиноПоиск / Семпл / Исходник-Качество: HDRip 400p
Формат: AVI
Видео кодек: XVID
Аудио кодек: AC3
Видео: 720x400 (16:9), 23.976 fps, ~2000 Kbps, 0.290 bit/pixel
Аудио:
Audio Rus: 48 kHz, AC3 Dolby Digital, 3/2 (L,C,R,l,r) + LFE ch, ~384.00 kbps avg
Audio Eng: 48 kHz, AC3 Dolby Digital, 3/2 (L,C,R,l,r) + LFE ch, ~384.00 kbps avg- -

MI

Format : AVI
Format/Info : Audio Video Interleave
File size : 844 MiB
Duration : 42mn 23s
Overall bit rate : 2 782 Kbps
Writing application : VirtualDubMod 1.5.10.2 (build 2540/release)
Writing library : VirtualDubMod build 2540/release
Video
ID : 0
Format : MPEG-4 Visual
Format profile : Advanced Simple@L5
Format settings, BVOP : 1
Format settings, QPel : No
Format settings, GMC : No warppoints
Format settings, Matrix : Default (MPEG)
Codec ID : XVID
Codec ID/Hint : XviD
Duration : 42mn 23s
Bit rate : 2 000 Kbps
Width : 720 pixels
Height : 400 pixels
Display aspect ratio : 16:9
Frame rate : 23.976 fps
Color space : YUV
Chroma subsampling : 4:2:0
Bit depth : 8 bits
Scan type : Progressive
Compression mode : Lossy
Bits/(Pixel*Frame) : 0.290
Stream size : 606 MiB (72%)
Writing library : XviD 64
Audio #1
ID : 1
Format : AC-3
Format/Info : Audio Coding 3
Mode extension : CM (complete main)
Format settings, Endianness : Big
Codec ID : 2000
Duration : 42mn 23s
Bit rate mode : Constant
Bit rate : 384 Kbps
Channel(s) : 6 channels
Channel positions : Front: L C R, Side: L R, LFE
Sampling rate : 48.0 KHz
Bit depth : 16 bits
Compression mode : Lossy
Stream size : 116 MiB (14%)
Alignment : Split accross interleaves
Interleave, duration : 42 ms (1.00 video frame)
Interleave, preload duration : 500 ms
Audio #2
ID : 2
Format : AC-3
Format/Info : Audio Coding 3
Mode extension : CM (complete main)
Format settings, Endianness : Big
Codec ID : 2000
Duration : 42mn 23s
Bit rate mode : Constant
Bit rate : 384 Kbps
Channel(s) : 6 channels
Channel positions : Front: L C R, Side: L R, LFE
Sampling rate : 48.0 KHz
Bit depth : 16 bits
Compression mode : Lossy
Stream size : 116 MiB (14%)
Alignment : Split accross interleaves
Interleave, duration : 42 ms (1.00 video frame)
Interleave, preload duration : 500 ms
Не забывайте говорить "спасибо", и оставайтесь
на раздаче как можно дольше!!!
-WEB-DL 400р 1 Сезон СТС WEB-DL 400р 2 Сезон СТС WEB-DL 400р 3 Сезон СТС
WEB-DL 400р 4 Сезон СТС WEB-DL 400р 5 Сезон СТС
BDRip 400р 6 Сезон СТС HDRip 400р 7 Сезон СТС HDRip 400р 8 Сезон СТС
HDRip 400р 9 Сезон Smart`s Studios HDRip 400р 10 Сезон Smart`s Studios-Стиль оформления: by 12kiril and >^Мурлыська^
Вы не можете начинать темы
Вы не можете отвечать на сообщения
Вы не можете редактировать свои сообщения
Вы не можете удалять свои сообщения
Вы не можете голосовать в опросах
Вы не можете прикреплять файлы к сообщениям
Вы можете скачивать файлы
!ВНИМАНИЕ!

Сайт не предоставляет электронные версии произведений, а занимается лишь коллекционированием и каталогизацией ссылок, присылаемых и публикуемых на форуме нашими читателями. Если вы являетесь правообладателем какого-либо представленного материала и не желаете, чтобы ссылка на него находилась в нашем каталоге, свяжитесь с нами, и мы незамедлительно удалим ее. Файлы для обмена на трекере предоставлены пользователями сайта, и администрация не несет ответственности за их содержание. Просьба не заливать файлы, защищенные авторскими правами, а также файлы нелегального содержания!

Искали программы, игры, дополнения, музыка mp3, аниме, аудио книги, журналы? Добро пожаловать на свободный торрент трекер Torrents, у нас можно скачать бесплатно, без смс и регистрации и прочих ограничений лучшие, отборные сборки программ, игр. Скачать торрентом не составит труда даже не опытному пользователю. Раздачи ежедневно обновляются, только лучшие и качественные раздачи, подробные описания и скриншоты. Огромная коллекция программ для работы со звуком, графикой, дизайном, а так же множество плагинов и инструментов к ним с подробной инструкцией и рекомендациями. Прошивки для навигаторов, карты. Разнообразные игры, для Windows, Linux. В коллекцие есть и старые игры любых жанров, Rpg, Action, Shooter, strategy Множество дополнений, модификаций, сценариев для популярных игр в жанре экш, рпг, гонки, стратегии, логические игры. Множество аддонов и сценариев для Microsoft Flight Simulator Большая коллекция книг, учебников. Если нет возможности купить печатное издание - смело скачивайте цифровую версию книги или, быть может, журнала. Не любите читать - можно загрузить бесплатно аудикнигу. Для веб дизайнеров и программистов так же найдется множество специализированного софта, таких как: редакторы с подсветкой, среды программирования, компоненты, системы управления базами данных, разнообразные скрипты и шаблоны. Не так давно у нас появился материал для автолюбителей и владельцев мото - оригинальные и неоригинальные каталоги запчастей, книги и журналы по ремонту и обслуживанию, видеоуроки, статьи по чип тюнингу, прошивкам. Процедура получения контента элементарная, достаточно просто скачать торрент файл и добавить его в загрузку в вашем торрент клиенте. Если у вас нет специального торрент клиента, вы можете его скачать у нас.

Still Life with Tornado | Adobe Photoshop CC (2014.2) v15.2.0.230 | Khalifah