Чарльз Чаплин: Короткометражные комедии студии «Эссеней» / Chaplin\'s Essanay Comedies (Чарльз Чаплин / Charles Chaplin, Гилберт М. Андерсон / Gilbert M. Anderson) [1915-1916, США, комедия, немое кино, BDRemux 1080p] [GBR] VO + Original + Sub Ru 

Цитировать
Чарльз Чаплин: Короткометражные комедии студии «Эссеней» / Chaplin's Essanay Comedies- Год выпуска: 1915-1916
Страна: США
Жанр: комедия
Продолжительность: 06:10:05 (15-30 минут x 15)
Перевод: Студийный (одноголосый закадровый) Мастер Тэйп
Оригинальная аудиодорожка: музыкальное сопровождение
Субтитры: Русские, английские интертитры-Режиссер: Чарльз Чаплин / Charles Chaplin, Гилберт М. «Брончо Билли» Андерсон / Gilbert M. «Broncho Billy» Anderson-Описание:
В январе 1915 года Чаплин во время перезаключения годового контракта потребовал у Сеннета увеличения гонорара. Чаплин знал себе цену. И хотя еще не представлял масштабов собственной популярности, понимал, что его фильмы приносят студии огромные доходы. Сеннет настаивал на сохранении прежних 150 долларов в неделю и ни центом больше. Чаплин заявил, что уйдет на другую студию. Мак выругался в ответ...
1 февраля 1915 года Чарльз Чаплин выпустил первую картину на студии «Эссеней» - короткометражку с говорящим названием «Его новая работа». Условия контракта были принципиально иными. Чаплин получал по 1250 долларов еженедельно и 10 тысяч долларов в виде бонуса за подписание годового контракта. В рамках этого контракта Чаплин снял в 1915 году для Essanay 14 короткометражных комедий, а также сыграл эпизодическую роль в фильме с Брончо Билли («Его выздоровление», англ. His Regeneration).
Работая для Essanay, Чаплин собирает свою первую устойчивую актёрскую команду, в которой появляются Эдна Пёвайнс, комики Лео Уайт, Бад Джемисон и Джон Рэнд. Сроки съемки новых лент увеличились с одной недели до двух, затем до месяца. У Чаплина появилась возможность работать более вдумчиво, без вечной спешки. Однако Чаплин оставался лишь актером, которому платят больше других, и только отчасти - режиссером своих картин. О полной творческой свободе речи пока не идет...-За русские дорожки спасибо Dizi67, за субтитры спасибо Core_soul.
| | Сэмплы-Качество: BDRemux 1080p (Charlie.Chaplin.The.Essanay.Comedies.1915-1916.COMPLETE.BLURAY-VEXHD)
Контейнер: MKV
Видео: AVC, 1920x1080 (1.33:1), 24 fps, ~26000–27000 kbps
Аудио 1: Русский AС3, 2.0, 48 kHz, 192 kbps
Аудио 2: DTS-HD MA 2.0, 48 kHz, ~1600–1700 kbps, 16-bit (DTS Core: 2.0, 48 kHz, 1509 kbps, 16-bit)
Формат субтитров: softsub (SRT)-

01. His New Job / Его новая работа

Год выпуска: 1915
Продолжительность: 00:28:57-В ролях: Чарльз Чаплин, Билли Армстронг, Агнес Эйрс, Бен Тёрпин, Лео Уайт, Артур В. Бейтс, Роберт Болдер, Фрэнк Дж. Коулмэн, Чарльз Хичкок, Чарльз Инсли, Шарлотта Мино, Джесс Роббинс-Описание:
Безработный приходит на открытые пробы новых актёров в контору вымышленной киностудии "Лодстоун". Туда же приходит ещё один полупьяный и косоглазый претендент, с которым у безработного сразу же возникает соперничество. Удачно пройдя пробы, он получает работу и отправляется на студию, где ставится какая-то историческая драма с гусарами и дамами...-

MI

General
Unique ID : 254592229775826492692681803098386296390 (0xBF88AE0D7DB95474A0B6B0DDA5E36E46)
Complete name : Chaplin's Essanay Comedies (1915-1916) BDRemux\01.His.New.Job.1915.1080p.BDRemux.mkv
Format : Matroska
Format version : Version 2
File size : 5.78 GiB
Duration : 28 min 57 s
Overall bit rate mode : Variable
Overall bit rate : 28.5 Mb/s
Movie name : His New Job / Его новая работа (1915) – RuTracker
Encoded date : UTC 2017-07-02 18:17:43
Writing application : mkvmerge v12.0.0 ('Trust / Lust') 64bit
Writing library : libebml v1.3.4 + libmatroska v1.4.5
Cover : Yes
Attachments : cover.jpg
Video
ID : 1
Format : AVC
Format/Info : Advanced Video Codec
Format profile : High@L4.1
Format settings, CABAC : Yes
Format settings, ReFrames : 3 frames
Codec ID : V_MPEG4/ISO/AVC
Duration : 28 min 57 s
Bit rate mode : Variable
Bit rate : 27.0 Mb/s
Maximum bit rate : 38.0 Mb/s
Width : 1 920 pixels
Height : 1 080 pixels
Display aspect ratio : 16:9
Frame rate mode : Constant
Frame rate : 24.000 FPS
Color space : YUV
Chroma subsampling : 4:2:0
Bit depth : 8 bits
Scan type : Progressive
Bits/(Pixel*Frame) : 0.543
Stream size : 5.41 GiB (94%)
Writing library : x264 core 128 r2216 198a7ea
Encoding settings : cabac=1 / ref=4 / deblock=0:-1:-1 / analyse=0x3:0x133 / me=umh / subme=10 / psy=1 / psy_rd=1.00:0.15 / mixed_ref=1 / me_range=24 / chroma_me=1 / trellis=2 / 8x8dct=1 / cqm=1 / deadzone=21,11 / fast_pskip=1 / chroma_qp_offset=-3 / threads=12 / lookahead_threads=2 / sliced_threads=0 / slices=4 / nr=0 / decimate=1 / interlaced=0 / bluray_compat=1 / constrained_intra=0 / bframes=3 / b_pyramid=1 / b_adapt=2 / b_bias=0 / direct=3 / weightb=1 / open_gop=1 / weightp=1 / keyint=24 / keyint_min=1 / scenecut=40 / intra_refresh=0 / rc_lookahead=24 / rc=2pass / mbtree=1 / bitrate=27000 / ratetol=1.0 / qcomp=0.20 / qpmin=4 / qpmax=69 / qpstep=4 / cplxblur=20.0 / qblur=0.5 / vbv_maxrate=38000 / vbv_bufsize=28500 / nal_hrd=vbr / ip_ratio=1.40 / aq=1:1.00
Language : English
Default : Yes
Forced : No
Color range : Limited
Color primaries : BT.709
Transfer characteristics : BT.709
Matrix coefficients : BT.709
Audio #1
ID : 2
Format : AC-3
Format/Info : Audio Coding 3
Format settings, Endianness : Big
Codec ID : A_AC3
Duration : 28 min 39 s
Bit rate mode : Constant
Bit rate : 192 kb/s
Channel(s) : 2 channels
Channel positions : Front: L R
Sampling rate : 48.0 kHz
Frame rate : 31.250 FPS (1536 spf)
Bit depth : 16 bits
Compression mode : Lossy
Stream size : 39.4 MiB (1%)
Title : VO – Мастер Тэйп
Language : Russian
Service kind : Complete Main
Default : Yes
Forced : No
Audio #2
ID : 3
Format : DTS
Format/Info : Digital Theater Systems
Format profile : MA / Core
Mode : 16
Format settings, Endianness : Big
Codec ID : A_DTS
Duration : 28 min 48 s
Bit rate mode : Variable / Constant
Bit rate : 1 634 kb/s / 1 509 kb/s
Channel(s) : 2 channels
Channel positions : Front: L R
Sampling rate : 48.0 kHz
Frame rate : 93.750 FPS (512 spf)
Bit depth : 16 bits
Compression mode : Lossless / Lossy
Stream size : 337 MiB (6%)
Title : Music compiled by Rodney Sauer and played by The Mont Alto Motion Picture Orchestra
Language : zxx
Default : No
Forced : No
Text
ID : 4
Format : UTF-8
Codec ID : S_TEXT/UTF8
Codec ID/Info : UTF-8 Plain Text
Duration : 27 min 5 s
Bit rate : 5 b/s
Count of elements : 25
Stream size : 1.03 KiB (0%)
Language : Russian
Default : No
Forced : No
Menu
00:00:00.000 : en:Chapter 1
00:11:08.833 : en:Chapter 2
00:22:23.583 : en:Chapter 3

02. A Night Out / Ночь напролет

Год выпуска: 1915
Продолжительность: 00:27:27-В ролях: Чарльз Чаплин, Эдна Пёвайнс, Бен Тёрпин, Лео Уайт, Чарльз Аллен Дили, Фрэнк Долан, В. Коулмэн Элам, Эдди Фрайс, Фред Гудвинс, Мадрона Хикс, Бад Джеймисон, Дэниэл П. Келлехер-Описание:
После посещения бара Чарли и Бен устраивают беспорядки в шикарном ресторане. Позже Чарли оказывается в компрометирующей ситуации в отеле с женой главного официанта.-

MI

General
Unique ID : 219708997091469186480317630758217133791 (0xA54A69E54ADCDB829D15B6BD2A052EDF)
Complete name : Chaplin's Essanay Comedies (1915-1916) BDRemux\02.A.Night.Out.1915.1080p.BDRemux.mkv
Format : Matroska
Format version : Version 2
File size : 5.47 GiB
Duration : 27 min 27 s
Overall bit rate mode : Variable
Overall bit rate : 28.5 Mb/s
Movie name : A Night Out / Ночь напролет (1915) – RuTracker
Encoded date : UTC 2017-07-06 16:17:23
Writing application : mkvmerge v12.0.0 ('Trust / Lust') 64bit
Writing library : libebml v1.3.4 + libmatroska v1.4.5
Cover : Yes
Attachments : cover.jpg
Video
ID : 1
Format : AVC
Format/Info : Advanced Video Codec
Format profile : High@L4.1
Format settings, CABAC : Yes
Format settings, ReFrames : 3 frames
Codec ID : V_MPEG4/ISO/AVC
Duration : 27 min 27 s
Bit rate mode : Variable
Bit rate : 27.0 Mb/s
Maximum bit rate : 38.0 Mb/s
Width : 1 920 pixels
Height : 1 080 pixels
Display aspect ratio : 16:9
Frame rate mode : Constant
Frame rate : 24.000 FPS
Color space : YUV
Chroma subsampling : 4:2:0
Bit depth : 8 bits
Scan type : Progressive
Bits/(Pixel*Frame) : 0.543
Stream size : 5.13 GiB (94%)
Writing library : x264 core 128 r2216 198a7ea
Encoding settings : cabac=1 / ref=4 / deblock=0:-1:-1 / analyse=0x3:0x133 / me=umh / subme=10 / psy=1 / psy_rd=1.00:0.15 / mixed_ref=1 / me_range=24 / chroma_me=1 / trellis=2 / 8x8dct=1 / cqm=1 / deadzone=21,11 / fast_pskip=1 / chroma_qp_offset=-3 / threads=12 / lookahead_threads=2 / sliced_threads=0 / slices=4 / nr=0 / decimate=1 / interlaced=0 / bluray_compat=1 / constrained_intra=0 / bframes=3 / b_pyramid=1 / b_adapt=2 / b_bias=0 / direct=3 / weightb=1 / open_gop=1 / weightp=1 / keyint=24 / keyint_min=1 / scenecut=40 / intra_refresh=0 / rc_lookahead=24 / rc=2pass / mbtree=1 / bitrate=27000 / ratetol=1.0 / qcomp=0.20 / qpmin=4 / qpmax=69 / qpstep=4 / cplxblur=20.0 / qblur=0.5 / vbv_maxrate=38000 / vbv_bufsize=28500 / nal_hrd=vbr / ip_ratio=1.40 / aq=1:1.00
Language : English
Default : Yes
Forced : No
Color range : Limited
Color primaries : BT.709
Transfer characteristics : BT.709
Matrix coefficients : BT.709
Audio #1
ID : 2
Format : AC-3
Format/Info : Audio Coding 3
Format settings, Endianness : Big
Codec ID : A_AC3
Duration : 27 min 1 s
Bit rate mode : Constant
Bit rate : 192 kb/s
Channel(s) : 2 channels
Channel positions : Front: L R
Sampling rate : 48.0 kHz
Frame rate : 31.250 FPS (1536 spf)
Bit depth : 16 bits
Compression mode : Lossy
Stream size : 37.1 MiB (1%)
Title : VO – Мастер Тэйп
Language : Russian
Service kind : Complete Main
Default : Yes
Forced : No
Audio #2
ID : 3
Format : DTS
Format/Info : Digital Theater Systems
Format profile : MA / Core
Mode : 16
Format settings, Endianness : Big
Codec ID : A_DTS
Duration : 27 min 18 s
Bit rate mode : Variable / Constant
Bit rate : 1 611 kb/s / 1 509 kb/s
Channel(s) : 2 channels
Channel positions : Front: L R
Sampling rate : 48.0 kHz
Frame rate : 93.750 FPS (512 spf)
Bit depth : 16 bits
Compression mode : Lossless / Lossy
Stream size : 315 MiB (6%)
Title : Music by Robert Israel
Language : zxx
Default : No
Forced : No
Text
ID : 4
Format : UTF-8
Codec ID : S_TEXT/UTF8
Codec ID/Info : UTF-8 Plain Text
Duration : 17 min 28 s
Bit rate : 1 b/s
Count of elements : 5
Stream size : 229 Bytes (0%)
Language : Russian
Default : No
Forced : No
Menu
00:00:00.000 : en:Chapter 1
00:14:17.292 : en:Chapter 2

03. The Champion / Чемпион

Год выпуска: 1915
Продолжительность: 00:31:12-В ролях: Чарльз Чаплин, Эдна Пёвайнс, Гилберт М. «Брончо Билли» Андерсон, Билли Армстронг, Ллойд Бэйкон, Билл Като, Бад Джеймисон, Бен Тёрпин, Лео Уайт, Фрэнк Долан, В. Коулмэн Элам, Эдди Фрайс, Дэниэл П. Келлехер-Описание:
В поисках средств для существования герой Чаплина отправляется в боксёрский клуб, где непобедимый чемпион укладывает жаждущих денег новичков. Не тут-то было — набравшись терпения и собрав всю свою волю в кулак, наш герой отправляется побеждать…-

MI

General
Unique ID : 223878690744011442467613555923582780400 (0xA86D77AA3D813B6B9CADA70E01A903F0)
Complete name : Chaplin's Essanay Comedies (1915-1916) BDRemux\03.The.Champion.1915.1080p.BDRemux.mkv
Format : Matroska
Format version : Version 2
File size : 6.24 GiB
Duration : 31 min 12 s
Overall bit rate mode : Variable
Overall bit rate : 28.6 Mb/s
Movie name : The Champion / Чемпион (1915) – RuTracker
Encoded date : UTC 2017-07-02 18:35:11
Writing application : mkvmerge v12.0.0 ('Trust / Lust') 64bit
Writing library : libebml v1.3.4 + libmatroska v1.4.5
Cover : Yes
Attachments : cover.jpg
Video
ID : 1
Format : AVC
Format/Info : Advanced Video Codec
Format profile : High@L4.1
Format settings, CABAC : Yes
Format settings, ReFrames : 3 frames
Codec ID : V_MPEG4/ISO/AVC
Duration : 31 min 12 s
Bit rate mode : Variable
Bit rate : 27.0 Mb/s
Maximum bit rate : 38.0 Mb/s
Width : 1 920 pixels
Height : 1 080 pixels
Display aspect ratio : 16:9
Frame rate mode : Constant
Frame rate : 24.000 FPS
Color space : YUV
Chroma subsampling : 4:2:0
Bit depth : 8 bits
Scan type : Progressive
Bits/(Pixel*Frame) : 0.543
Stream size : 5.83 GiB (93%)
Writing library : x264 core 128 r2216 198a7ea
Encoding settings : cabac=1 / ref=4 / deblock=0:-1:-1 / analyse=0x3:0x133 / me=umh / subme=10 / psy=1 / psy_rd=1.00:0.15 / mixed_ref=1 / me_range=24 / chroma_me=1 / trellis=2 / 8x8dct=1 / cqm=1 / deadzone=21,11 / fast_pskip=1 / chroma_qp_offset=-3 / threads=12 / lookahead_threads=2 / sliced_threads=0 / slices=4 / nr=0 / decimate=1 / interlaced=0 / bluray_compat=1 / constrained_intra=0 / bframes=3 / b_pyramid=1 / b_adapt=2 / b_bias=0 / direct=3 / weightb=1 / open_gop=1 / weightp=1 / keyint=24 / keyint_min=1 / scenecut=40 / intra_refresh=0 / rc_lookahead=24 / rc=2pass / mbtree=1 / bitrate=27000 / ratetol=1.0 / qcomp=0.20 / qpmin=4 / qpmax=69 / qpstep=4 / cplxblur=20.0 / qblur=0.5 / vbv_maxrate=38000 / vbv_bufsize=28500 / nal_hrd=vbr / ip_ratio=1.40 / aq=1:1.00
Language : English
Default : Yes
Forced : No
Color range : Limited
Color primaries : BT.709
Transfer characteristics : BT.709
Matrix coefficients : BT.709
Audio #1
ID : 2
Format : AC-3
Format/Info : Audio Coding 3
Format settings, Endianness : Big
Codec ID : A_AC3
Duration : 30 min 48 s
Bit rate mode : Constant
Bit rate : 192 kb/s
Channel(s) : 2 channels
Channel positions : Front: L R
Sampling rate : 48.0 kHz
Frame rate : 31.250 FPS (1536 spf)
Bit depth : 16 bits
Compression mode : Lossy
Stream size : 42.3 MiB (1%)
Title : VO – Мастер Тэйп
Language : Russian
Service kind : Complete Main
Default : Yes
Forced : No
Audio #2
ID : 3
Format : DTS
Format/Info : Digital Theater Systems
Format profile : MA / Core
Mode : 16
Format settings, Endianness : Big
Codec ID : A_DTS
Duration : 31 min 3 s
Bit rate mode : Variable / Constant
Bit rate : 1 679 kb/s / 1 509 kb/s
Channel(s) : 2 channels
Channel positions : Front: L R
Sampling rate : 48.0 kHz
Frame rate : 93.750 FPS (512 spf)
Bit depth : 16 bits
Compression mode : Lossless / Lossy
Stream size : 373 MiB (6%)
Title : Music by Robert Israel
Language : zxx
Default : No
Forced : No
Text
ID : 4
Format : UTF-8
Codec ID : S_TEXT/UTF8
Codec ID/Info : UTF-8 Plain Text
Duration : 30 min 37 s
Bit rate : 4 b/s
Count of elements : 20
Stream size : 977 Bytes (0%)
Language : Russian
Default : No
Forced : No
Menu
00:00:00.000 : en:Chapter 1
00:12:07.625 : en:Chapter 2
00:21:26.625 : en:Chapter 3

04. In the Park / В парке

Год выпуска: 1915
Продолжительность: 00:14:11-В ролях: Чарльз Чаплин, Эдна Пёвайнс, Леона Андерсон, Бад Джеймисон, Билли Армстронг, Ллойд Бэйкон, Эрнест Ван Пелт, Лео Уайт-Описание:
Бродяга крадёт дамскую сумочку, но при попытке залезть в карман к Чарли теряет сигареты и спички. Он спасает продавца хот-догов от головореза, но получает на орехи тростью. Когда вор пытается взять у Чарли несколько сосисок, тот забирает сумочку. Сумочка гуляет по рукам…-

MI

General
Unique ID : 240427571733252154136243559234999653870 (0xB4E0AA7E0A9484C19DDC6EC7D14B95EE)
Complete name : Chaplin's Essanay Comedies (1915-1916) BDRemux\04.In.the.Park.1915.1080p.BDRemux.mkv
Format : Matroska
Format version : Version 2
File size : 2.80 GiB
Duration : 14 min 11 s
Overall bit rate mode : Variable
Overall bit rate : 28.2 Mb/s
Movie name : In the Park / В парке (1915) – RuTracker
Encoded date : UTC 2017-07-02 18:40:38
Writing application : mkvmerge v12.0.0 ('Trust / Lust') 64bit
Writing library : libebml v1.3.4 + libmatroska v1.4.5
Cover : Yes
Attachments : cover.jpg
Video
ID : 1
Format : AVC
Format/Info : Advanced Video Codec
Format profile : High@L4.1
Format settings, CABAC : Yes
Format settings, ReFrames : 3 frames
Codec ID : V_MPEG4/ISO/AVC
Duration : 14 min 11 s
Bit rate mode : Variable
Bit rate : 27.0 Mb/s
Maximum bit rate : 38.0 Mb/s
Width : 1 920 pixels
Height : 1 080 pixels
Display aspect ratio : 16:9
Frame rate mode : Constant
Frame rate : 24.000 FPS
Color space : YUV
Chroma subsampling : 4:2:0
Bit depth : 8 bits
Scan type : Progressive
Bits/(Pixel*Frame) : 0.543
Stream size : 2.62 GiB (94%)
Writing library : x264 core 128 r2216 198a7ea
Encoding settings : cabac=1 / ref=4 / deblock=0:-1:-1 / analyse=0x3:0x133 / me=umh / subme=10 / psy=1 / psy_rd=1.00:0.15 / mixed_ref=1 / me_range=24 / chroma_me=1 / trellis=2 / 8x8dct=1 / cqm=1 / deadzone=21,11 / fast_pskip=1 / chroma_qp_offset=-3 / threads=12 / lookahead_threads=2 / sliced_threads=0 / slices=4 / nr=0 / decimate=1 / interlaced=0 / bluray_compat=1 / constrained_intra=0 / bframes=3 / b_pyramid=1 / b_adapt=2 / b_bias=0 / direct=3 / weightb=1 / open_gop=1 / weightp=1 / keyint=24 / keyint_min=1 / scenecut=40 / intra_refresh=0 / rc_lookahead=24 / rc=2pass / mbtree=1 / bitrate=27000 / ratetol=1.0 / qcomp=0.20 / qpmin=4 / qpmax=69 / qpstep=4 / cplxblur=20.0 / qblur=0.5 / vbv_maxrate=38000 / vbv_bufsize=28500 / nal_hrd=vbr / ip_ratio=1.40 / aq=1:1.00
Language : English
Default : Yes
Forced : No
Color range : Limited
Color primaries : BT.709
Transfer characteristics : BT.709
Matrix coefficients : BT.709
Audio #1
ID : 2
Format : AC-3
Format/Info : Audio Coding 3
Format settings, Endianness : Big
Codec ID : A_AC3
Duration : 13 min 53 s
Bit rate mode : Constant
Bit rate : 192 kb/s
Channel(s) : 2 channels
Channel positions : Front: L R
Sampling rate : 48.0 kHz
Frame rate : 31.250 FPS (1536 spf)
Bit depth : 16 bits
Compression mode : Lossy
Stream size : 19.1 MiB (1%)
Title : VO – Мастер Тэйп
Language : Russian
Service kind : Complete Main
Default : Yes
Forced : No
Audio #2
ID : 3
Format : DTS
Format/Info : Digital Theater Systems
Format profile : MA / Core
Mode : 16
Format settings, Endianness : Big
Codec ID : A_DTS
Duration : 14 min 2 s
Bit rate mode : Variable / Constant
Bit rate : 1 646 kb/s / 1 509 kb/s
Channel(s) : 2 channels
Channel positions : Front: L R
Sampling rate : 48.0 kHz
Frame rate : 93.750 FPS (512 spf)
Bit depth : 16 bits
Compression mode : Lossless / Lossy
Stream size : 165 MiB (6%)
Title : Music compiled by Rodney Sauer and played by The Mont Alto Motion Picture Orchestra
Language : zxx
Default : No
Forced : No
Text
ID : 4
Format : UTF-8
Codec ID : S_TEXT/UTF8
Codec ID/Info : UTF-8 Plain Text
Duration : 12 min 25 s
Bit rate : 1 b/s
Count of elements : 6
Stream size : 179 Bytes (0%)
Language : Russian
Default : No
Forced : No

05. A Jitney Elopement / Бегство в автомобиле

Год выпуска: 1915
Продолжительность: 00:25:05-В ролях: Чарльз Чаплин, Эдна Пёвайнс, Ллойд Бэйкон, Фред Гудвинс, Бад Джеймисон, Пэдди МакГуайр, Карл Стокдейл, Эрнест Ван Пелт, Лео Уайт-Описание:
Отец Эдны хочет выдать свою дочь замуж за богатого графа Хлорида де Лима. Чарли, истинная любовь Эдны, в свою очередь выдаёт себя за графа во время обеда.-

MI

General
Unique ID : 184496339070267512593601432043314522075 (0x8ACCB3D0C86EF93696C009B6DBF0A7DB)
Complete name : Chaplin's Essanay Comedies (1915-1916) BDRemux\05.A.Jitney.Elopement.1915.1080p.BDRemux.mkv
Format : Matroska
Format version : Version 2
File size : 4.99 GiB
Duration : 25 min 5 s
Overall bit rate mode : Variable
Overall bit rate : 28.5 Mb/s
Movie name : A Jitney Elopement / Бегство в автомобиле (1915) – RuTracker
Encoded date : UTC 2017-07-02 18:51:35
Writing application : mkvmerge v12.0.0 ('Trust / Lust') 64bit
Writing library : libebml v1.3.4 + libmatroska v1.4.5
Cover : Yes
Attachments : cover.jpg
Video
ID : 1
Format : AVC
Format/Info : Advanced Video Codec
Format profile : High@L4.1
Format settings, CABAC : Yes
Format settings, ReFrames : 3 frames
Codec ID : V_MPEG4/ISO/AVC
Duration : 25 min 5 s
Bit rate mode : Variable
Bit rate : 27.0 Mb/s
Maximum bit rate : 38.0 Mb/s
Width : 1 920 pixels
Height : 1 080 pixels
Display aspect ratio : 16:9
Frame rate mode : Constant
Frame rate : 24.000 FPS
Color space : YUV
Chroma subsampling : 4:2:0
Bit depth : 8 bits
Scan type : Progressive
Bits/(Pixel*Frame) : 0.543
Stream size : 4.67 GiB (94%)
Writing library : x264 core 128 r2216 198a7ea
Encoding settings : cabac=1 / ref=4 / deblock=0:-1:-1 / analyse=0x3:0x133 / me=umh / subme=10 / psy=1 / psy_rd=1.00:0.15 / mixed_ref=1 / me_range=24 / chroma_me=1 / trellis=2 / 8x8dct=1 / cqm=1 / deadzone=21,11 / fast_pskip=1 / chroma_qp_offset=-3 / threads=12 / lookahead_threads=2 / sliced_threads=0 / slices=4 / nr=0 / decimate=1 / interlaced=0 / bluray_compat=1 / constrained_intra=0 / bframes=3 / b_pyramid=1 / b_adapt=2 / b_bias=0 / direct=3 / weightb=1 / open_gop=1 / weightp=1 / keyint=24 / keyint_min=1 / scenecut=40 / intra_refresh=0 / rc_lookahead=24 / rc=2pass / mbtree=1 / bitrate=27000 / ratetol=1.0 / qcomp=0.20 / qpmin=4 / qpmax=69 / qpstep=4 / cplxblur=20.0 / qblur=0.5 / vbv_maxrate=38000 / vbv_bufsize=28500 / nal_hrd=vbr / ip_ratio=1.40 / aq=1:1.00
Language : English
Default : Yes
Forced : No
Color range : Limited
Color primaries : BT.709
Transfer characteristics : BT.709
Matrix coefficients : BT.709
Audio #1
ID : 2
Format : AC-3
Format/Info : Audio Coding 3
Format settings, Endianness : Big
Codec ID : A_AC3
Duration : 24 min 48 s
Bit rate mode : Constant
Bit rate : 192 kb/s
Channel(s) : 2 channels
Channel positions : Front: L R
Sampling rate : 48.0 kHz
Frame rate : 31.250 FPS (1536 spf)
Bit depth : 16 bits
Compression mode : Lossy
Stream size : 34.1 MiB (1%)
Title : VO – Мастер Тэйп
Language : Russian
Service kind : Complete Main
Default : Yes
Forced : No
Audio #2
ID : 3
Format : DTS
Format/Info : Digital Theater Systems
Format profile : MA / Core
Mode : 16
Format settings, Endianness : Big
Codec ID : A_DTS
Duration : 24 min 56 s
Bit rate mode : Variable / Constant
Bit rate : 1 631 kb/s / 1 509 kb/s
Channel(s) : 2 channels
Channel positions : Front: L R
Sampling rate : 48.0 kHz
Frame rate : 93.750 FPS (512 spf)
Bit depth : 16 bits
Compression mode : Lossless / Lossy
Stream size : 291 MiB (6%)
Title : Music compiled by Rodney Sauer and played by The Mont Alto Motion Picture Orchestra
Language : zxx
Default : No
Forced : No
Text
ID : 4
Format : UTF-8
Codec ID : S_TEXT/UTF8
Codec ID/Info : UTF-8 Plain Text
Duration : 12 min 45 s
Bit rate : 11 b/s
Count of elements : 18
Stream size : 1.06 KiB (0%)
Language : Russian
Default : No
Forced : No
Menu
00:00:00.000 : en:Chapter 1
00:10:04.375 : en:Chapter 2

06. The Tramp / Бродяга

Год выпуска: 1915
Продолжительность: 00:26:43-В ролях: Чарльз Чаплин, Эдна Пёвайнс, Эрнест Ван Пелт, Лео Уайт, Билли Армстронг, Ллойд Бэйкон, Бад Джеймисон, Пэдди МакГуайр-Описание:
Маленький бродяга нанимается в работники к фермеру и влюбляется в его прекрасную дочь.-

MI

General
Unique ID : 244413652284275185955251654911608112886 (0xB7E05B6FD45D75CAB7CC04D0B30E46F6)
Complete name : Chaplin's Essanay Comedies (1915-1916) BDRemux\06.The.Tramp.1915.1080p.BDRemux.mkv
Format : Matroska
Format version : Version 2
File size : 5.33 GiB
Duration : 26 min 43 s
Overall bit rate mode : Variable
Overall bit rate : 28.6 Mb/s
Movie name : The Tramp / Бродяга (1915) – RuTracker
Encoded date : UTC 2017-07-02 18:58:38
Writing application : mkvmerge v12.0.0 ('Trust / Lust') 64bit
Writing library : libebml v1.3.4 + libmatroska v1.4.5
Cover : Yes
Attachments : cover.jpg
Video
ID : 1
Format : AVC
Format/Info : Advanced Video Codec
Format profile : High@L4.1
Format settings, CABAC : Yes
Format settings, ReFrames : 3 frames
Codec ID : V_MPEG4/ISO/AVC
Duration : 26 min 43 s
Bit rate mode : Variable
Bit rate : 27.0 Mb/s
Maximum bit rate : 38.0 Mb/s
Width : 1 920 pixels
Height : 1 080 pixels
Display aspect ratio : 16:9
Frame rate mode : Constant
Frame rate : 24.000 FPS
Color space : YUV
Chroma subsampling : 4:2:0
Bit depth : 8 bits
Scan type : Progressive
Bits/(Pixel*Frame) : 0.543
Stream size : 4.99 GiB (93%)
Writing library : x264 core 128 r2216 198a7ea
Encoding settings : cabac=1 / ref=4 / deblock=0:-1:-1 / analyse=0x3:0x133 / me=umh / subme=10 / psy=1 / psy_rd=1.00:0.15 / mixed_ref=1 / me_range=24 / chroma_me=1 / trellis=2 / 8x8dct=1 / cqm=1 / deadzone=21,11 / fast_pskip=1 / chroma_qp_offset=-3 / threads=12 / lookahead_threads=2 / sliced_threads=0 / slices=4 / nr=0 / decimate=1 / interlaced=0 / bluray_compat=1 / constrained_intra=0 / bframes=3 / b_pyramid=1 / b_adapt=2 / b_bias=0 / direct=3 / weightb=1 / open_gop=1 / weightp=1 / keyint=24 / keyint_min=1 / scenecut=40 / intra_refresh=0 / rc_lookahead=24 / rc=2pass / mbtree=1 / bitrate=27000 / ratetol=1.0 / qcomp=0.20 / qpmin=4 / qpmax=69 / qpstep=4 / cplxblur=20.0 / qblur=0.5 / vbv_maxrate=38000 / vbv_bufsize=28500 / nal_hrd=vbr / ip_ratio=1.40 / aq=1:1.00
Language : English
Default : Yes
Forced : No
Color range : Limited
Color primaries : BT.709
Transfer characteristics : BT.709
Matrix coefficients : BT.709
Audio #1
ID : 2
Format : AC-3
Format/Info : Audio Coding 3
Format settings, Endianness : Big
Codec ID : A_AC3
Duration : 26 min 22 s
Bit rate mode : Constant
Bit rate : 192 kb/s
Channel(s) : 2 channels
Channel positions : Front: L R
Sampling rate : 48.0 kHz
Frame rate : 31.250 FPS (1536 spf)
Bit depth : 16 bits
Compression mode : Lossy
Stream size : 36.2 MiB (1%)
Title : VO – Мастер Тэйп
Language : Russian
Service kind : Complete Main
Default : Yes
Forced : No
Audio #2
ID : 3
Format : DTS
Format/Info : Digital Theater Systems
Format profile : MA / Core
Mode : 16
Format settings, Endianness : Big
Codec ID : A_DTS
Duration : 26 min 34 s
Bit rate mode : Variable / Constant
Bit rate : 1 680 kb/s / 1 509 kb/s
Channel(s) : 2 channels
Channel positions : Front: L R
Sampling rate : 48.0 kHz
Frame rate : 93.750 FPS (512 spf)
Bit depth : 16 bits
Compression mode : Lossless / Lossy
Stream size : 319 MiB (6%)
Title : Music by Robert Israel
Language : zxx
Default : No
Forced : No
Text
ID : 4
Format : UTF-8
Codec ID : S_TEXT/UTF8
Codec ID/Info : UTF-8 Plain Text
Duration : 25 min 56 s
Bit rate : 3 b/s
Count of elements : 12
Stream size : 610 Bytes (0%)
Language : Russian
Default : No
Forced : No
Menu
00:00:00.000 : en:Chapter 1
00:06:34.208 : en:Chapter 2
00:17:29.833 : en:Chapter 3

07. By the Sea / У моря

Год выпуска: 1915
Продолжительность: 00:14:22-В ролях: Чарльз Чаплин, Эдна Пёвайнс, Билли Армстронг, Эд Армстронг, Бад Джеймисон, Пэдди МакГуайр, Снуб Поллард, Эрнест Ван Пелт
Описание:
Море. Пляж. Солнце. Красивые девушки и… маленький бродяга! Пляж уже не может оставаться тихим и спокойным местом, если там появился смешной человечек с тросточкой и в щегольском котелке...-

MI

General
Unique ID : 249465979319190485462525856863779114710 (0xBBAD66644804EB6BAF25F6EE41D94ED6)
Complete name : Chaplin's Essanay Comedies (1915-1916) BDRemux\07.By.the.Sea.1915.1080p.BDRemux.mkv
Format : Matroska
Format version : Version 2
File size : 2.83 GiB
Duration : 14 min 22 s
Overall bit rate mode : Variable
Overall bit rate : 28.2 Mb/s
Movie name : By the Sea / У моря (1915) – RuTracker
Encoded date : UTC 2017-07-02 19:03:05
Writing application : mkvmerge v12.0.0 ('Trust / Lust') 64bit
Writing library : libebml v1.3.4 + libmatroska v1.4.5
Cover : Yes
Attachments : cover.jpg
Video
ID : 1
Format : AVC
Format/Info : Advanced Video Codec
Format profile : High@L4.1
Format settings, CABAC : Yes
Format settings, ReFrames : 3 frames
Codec ID : V_MPEG4/ISO/AVC
Duration : 14 min 22 s
Bit rate mode : Variable
Bit rate : 27.0 Mb/s
Maximum bit rate : 38.0 Mb/s
Width : 1 920 pixels
Height : 1 080 pixels
Display aspect ratio : 16:9
Frame rate mode : Constant
Frame rate : 24.000 FPS
Color space : YUV
Chroma subsampling : 4:2:0
Bit depth : 8 bits
Scan type : Progressive
Bits/(Pixel*Frame) : 0.543
Stream size : 2.64 GiB (93%)
Writing library : x264 core 128 r2216 198a7ea
Encoding settings : cabac=1 / ref=4 / deblock=0:-1:-1 / analyse=0x3:0x133 / me=umh / subme=10 / psy=1 / psy_rd=1.00:0.15 / mixed_ref=1 / me_range=24 / chroma_me=1 / trellis=2 / 8x8dct=1 / cqm=1 / deadzone=21,11 / fast_pskip=1 / chroma_qp_offset=-3 / threads=12 / lookahead_threads=2 / sliced_threads=0 / slices=4 / nr=0 / decimate=1 / interlaced=0 / bluray_compat=1 / constrained_intra=0 / bframes=3 / b_pyramid=1 / b_adapt=2 / b_bias=0 / direct=3 / weightb=1 / open_gop=1 / weightp=1 / keyint=24 / keyint_min=1 / scenecut=40 / intra_refresh=0 / rc_lookahead=24 / rc=2pass / mbtree=1 / bitrate=27000 / ratetol=1.0 / qcomp=0.20 / qpmin=4 / qpmax=69 / qpstep=4 / cplxblur=20.0 / qblur=0.5 / vbv_maxrate=38000 / vbv_bufsize=28500 / nal_hrd=vbr / ip_ratio=1.40 / aq=1:1.00
Language : English
Default : Yes
Forced : No
Color range : Limited
Color primaries : BT.709
Transfer characteristics : BT.709
Matrix coefficients : BT.709
Audio #1
ID : 2
Format : AC-3
Format/Info : Audio Coding 3
Format settings, Endianness : Big
Codec ID : A_AC3
Duration : 14 min 4 s
Bit rate mode : Constant
Bit rate : 192 kb/s
Channel(s) : 2 channels
Channel positions : Front: L R
Sampling rate : 48.0 kHz
Frame rate : 31.250 FPS (1536 spf)
Bit depth : 16 bits
Compression mode : Lossy
Stream size : 19.3 MiB (1%)
Title : VO – Мастер Тэйп
Language : Russian
Service kind : Complete Main
Default : Yes
Forced : No
Audio #2
ID : 3
Format : DTS
Format/Info : Digital Theater Systems
Format profile : MA / Core
Mode : 16
Format settings, Endianness : Big
Codec ID : A_DTS
Duration : 14 min 13 s
Bit rate mode : Variable / Constant
Bit rate : 1 723 kb/s / 1 509 kb/s
Channel(s) : 2 channels
Channel positions : Front: L R
Sampling rate : 48.0 kHz
Frame rate : 93.750 FPS (512 spf)
Bit depth : 16 bits
Compression mode : Lossless / Lossy
Stream size : 175 MiB (6%)
Title : Music compiled by Rodney Sauer and played by The Mont Alto Motion Picture Orchestra
Language : zxx
Default : No
Forced : No
Text
ID : 4
Format : UTF-8
Codec ID : S_TEXT/UTF8
Codec ID/Info : UTF-8 Plain Text
Duration : 9 min 41 s
Bit rate : 3 b/s
Count of elements : 7
Stream size : 261 Bytes (0%)
Language : Russian
Default : No
Forced : No

08. His Regeneration / Его выздоровление / Его возрождение

Год выпуска: 1915
Продолжительность: 00:15:10-В ролях: Гилберт М. «Брончо Билли» Андерсон, Ли Уиллард, Маргарит Клэйтон, Хэйзел Эпплгейт, Чарльз Чаплин, Ллойд Бэйкон, Роберт Барроуз, Джо Кэссиди, Билл Като, Флоренс Като-Описание:
Фильм рассказывает историю двух соперников, одновременно влюбленных в балерину. Одним из них является закоренелый преступник. Первая часть фильма разворачивается в баре и заканчивается борьбой между двумя противниками. Во второй части происходит драматическая сцена убийства и кражи.-

MI

General
Unique ID : 248650899263829071135932565184879599834 (0xBB106BD7A2F34F27BE14C64DB7C120DA)
Complete name : Chaplin's Essanay Comedies (1915-1916) BDRemux\08.His.Regeneration.1915.1080p.BDRemux.mkv
Format : Matroska
Format version : Version 2
File size : 3.00 GiB
Duration : 15 min 10 s
Overall bit rate mode : Variable
Overall bit rate : 28.3 Mb/s
Movie name : His Regeneration / Его возрождение / Его выздоровление (1915) – RuTracker
Encoded date : UTC 2017-07-02 19:10:53
Writing application : mkvmerge v12.0.0 ('Trust / Lust') 64bit
Writing library : libebml v1.3.4 + libmatroska v1.4.5
Cover : Yes
Attachments : cover.jpg
Video
ID : 1
Format : AVC
Format/Info : Advanced Video Codec
Format profile : High@L4.1
Format settings, CABAC : Yes
Format settings, ReFrames : 3 frames
Codec ID : V_MPEG4/ISO/AVC
Duration : 15 min 10 s
Bit rate mode : Variable
Bit rate : 27.0 Mb/s
Maximum bit rate : 38.0 Mb/s
Width : 1 920 pixels
Height : 1 080 pixels
Display aspect ratio : 16:9
Frame rate mode : Constant
Frame rate : 24.000 FPS
Color space : YUV
Chroma subsampling : 4:2:0
Bit depth : 8 bits
Scan type : Progressive
Bits/(Pixel*Frame) : 0.543
Stream size : 2.80 GiB (93%)
Writing library : x264 core 128 r2216 198a7ea
Encoding settings : cabac=1 / ref=4 / deblock=0:-1:-1 / analyse=0x3:0x133 / me=umh / subme=10 / psy=1 / psy_rd=1.00:0.15 / mixed_ref=1 / me_range=24 / chroma_me=1 / trellis=2 / 8x8dct=1 / cqm=1 / deadzone=21,11 / fast_pskip=1 / chroma_qp_offset=-3 / threads=12 / lookahead_threads=2 / sliced_threads=0 / slices=4 / nr=0 / decimate=1 / interlaced=0 / bluray_compat=1 / constrained_intra=0 / bframes=3 / b_pyramid=1 / b_adapt=2 / b_bias=0 / direct=3 / weightb=1 / open_gop=1 / weightp=1 / keyint=24 / keyint_min=1 / scenecut=40 / intra_refresh=0 / rc_lookahead=24 / rc=2pass / mbtree=1 / bitrate=27000 / ratetol=1.0 / qcomp=0.20 / qpmin=4 / qpmax=69 / qpstep=4 / cplxblur=20.0 / qblur=0.5 / vbv_maxrate=38000 / vbv_bufsize=28500 / nal_hrd=vbr / ip_ratio=1.40 / aq=1:1.00
Language : English
Default : Yes
Forced : No
Color range : Limited
Color primaries : BT.709
Transfer characteristics : BT.709
Matrix coefficients : BT.709
Audio #1
ID : 2
Format : AC-3
Format/Info : Audio Coding 3
Format settings, Endianness : Big
Codec ID : A_AC3
Duration : 14 min 46 s
Bit rate mode : Constant
Bit rate : 192 kb/s
Channel(s) : 2 channels
Channel positions : Front: L R
Sampling rate : 48.0 kHz
Frame rate : 31.250 FPS (1536 spf)
Bit depth : 16 bits
Compression mode : Lossy
Stream size : 20.3 MiB (1%)
Title : VO – Мастер Тэйп
Language : Russian
Service kind : Complete Main
Default : Yes
Forced : No
Audio #2
ID : 3
Format : DTS
Format/Info : Digital Theater Systems
Format profile : MA / Core
Mode : 16
Format settings, Endianness : Big
Codec ID : A_DTS
Duration : 15 min 1 s
Bit rate mode : Variable / Constant
Bit rate : 1 667 kb/s / 1 509 kb/s
Channel(s) : 2 channels
Channel positions : Front: L R
Sampling rate : 48.0 kHz
Frame rate : 93.750 FPS (512 spf)
Bit depth : 16 bits
Compression mode : Lossless / Lossy
Stream size : 179 MiB (6%)
Title : Music by Robert Israel
Language : zxx
Default : No
Forced : No
Text
ID : 4
Format : UTF-8
Codec ID : S_TEXT/UTF8
Codec ID/Info : UTF-8 Plain Text
Duration : 14 min 1 s
Bit rate : 4 b/s
Count of elements : 9
Stream size : 484 Bytes (0%)
Language : Russian
Default : No
Forced : No

09. Work / Работа

Год выпуска: 1915
Продолжительность: 00:28:30
Перевод: Субтитры-В ролях: Чарльз Чаплин, Эдна Пёвайнс, Лео Уайт, Билли Армстронг, Марта Голден, Чарльз Инсли, Пэдди МакГуайр-Описание:
Чарли получает новую работу, но выполняет её очень своеобразно.-

MI

General
Unique ID : 179585341619530276012600679202784776654 (0x871AE0F27873C9ED9512769AD12391CE)
Complete name : Chaplin's Essanay Comedies (1915-1916) BDRemux\09.Work.1915.1080p.BDRemux.mkv
Format : Matroska
Format version : Version 2
File size : 5.65 GiB
Duration : 28 min 30 s
Overall bit rate mode : Variable
Overall bit rate : 28.4 Mb/s
Movie name : Work / Работа (1915) – RuTracker
Encoded date : UTC 2017-07-02 19:14:25
Writing application : mkvmerge v12.0.0 ('Trust / Lust') 64bit
Writing library : libebml v1.3.4 + libmatroska v1.4.5
Cover : Yes
Attachments : cover.jpg
Video
ID : 1
Format : AVC
Format/Info : Advanced Video Codec
Format profile : High@L4.1
Format settings, CABAC : Yes
Format settings, ReFrames : 3 frames
Codec ID : V_MPEG4/ISO/AVC
Duration : 28 min 30 s
Bit rate mode : Variable
Bit rate : 27.0 Mb/s
Maximum bit rate : 38.0 Mb/s
Width : 1 920 pixels
Height : 1 080 pixels
Display aspect ratio : 16:9
Frame rate mode : Constant
Frame rate : 24.000 FPS
Color space : YUV
Chroma subsampling : 4:2:0
Bit depth : 8 bits
Scan type : Progressive
Bits/(Pixel*Frame) : 0.543
Stream size : 5.32 GiB (94%)
Writing library : x264 core 128 r2216 198a7ea
Encoding settings : cabac=1 / ref=4 / deblock=0:-1:-1 / analyse=0x3:0x133 / me=umh / subme=10 / psy=1 / psy_rd=1.00:0.15 / mixed_ref=1 / me_range=24 / chroma_me=1 / trellis=2 / 8x8dct=1 / cqm=1 / deadzone=21,11 / fast_pskip=1 / chroma_qp_offset=-3 / threads=12 / lookahead_threads=2 / sliced_threads=0 / slices=4 / nr=0 / decimate=1 / interlaced=0 / bluray_compat=1 / constrained_intra=0 / bframes=3 / b_pyramid=1 / b_adapt=2 / b_bias=0 / direct=3 / weightb=1 / open_gop=1 / weightp=1 / keyint=24 / keyint_min=1 / scenecut=40 / intra_refresh=0 / rc_lookahead=24 / rc=2pass / mbtree=1 / bitrate=27000 / ratetol=1.0 / qcomp=0.20 / qpmin=4 / qpmax=69 / qpstep=4 / cplxblur=20.0 / qblur=0.5 / vbv_maxrate=38000 / vbv_bufsize=28500 / nal_hrd=vbr / ip_ratio=1.40 / aq=1:1.00
Language : English
Default : Yes
Forced : No
Color range : Limited
Color primaries : BT.709
Transfer characteristics : BT.709
Matrix coefficients : BT.709
Audio
ID : 2
Format : DTS
Format/Info : Digital Theater Systems
Format profile : MA / Core
Mode : 16
Format settings, Endianness : Big
Codec ID : A_DTS
Duration : 28 min 21 s
Bit rate mode : Variable / Constant
Bit rate : 1 667 kb/s / 1 509 kb/s
Channel(s) : 2 channels
Channel positions : Front: L R
Sampling rate : 48.0 kHz
Frame rate : 93.750 FPS (512 spf)
Bit depth : 16 bits
Compression mode : Lossless / Lossy
Stream size : 338 MiB (6%)
Title : Music by Robert Israel
Language : zxx
Default : Yes
Forced : No
Text
ID : 3
Format : UTF-8
Codec ID : S_TEXT/UTF8
Codec ID/Info : UTF-8 Plain Text
Duration : 25 min 0 s
Bit rate : 2 b/s
Count of elements : 13
Stream size : 548 Bytes (0%)
Language : Russian
Default : Yes
Forced : No
Menu
00:00:00.000 : en:Chapter 1
00:07:37.875 : en:Chapter 2
00:22:36.208 : en:Chapter 3

10. A Woman / Женщина

Год выпуска: 1915
Продолжительность: 00:23:20-В ролях: Чарльз Чаплин, Эдна Пёвайнс, Билли Армстронг, Марта Голден, Чарльз Инсли, Джесс Роббинс, Лео Уайт-Описание:
Гуляя по парку, Чарли пытается ухаживать за женщиной, однако она оказывается «занята» другим мужчиной, которого Чарли проучил, столкнув в реку. Затем он решает приударить за дочерью, отдыхающей в парке с матерью. Они приводят нового знакомого домой, а вскоре является и отец семейства: им оказывается тот самый мужчина, сброшенный в воду...-

MI

General
Unique ID : 222855102989013969667066585077883420205 (0xA7A854E46EBCA4E6AFBCF3CC4CC13E2D)
Complete name : Chaplin's Essanay Comedies (1915-1916) BDRemux\10.A.Woman.1915.1080p.BDRemux.mkv
Format : Matroska
Format version : Version 2
File size : 4.48 GiB
Duration : 23 min 20 s
Overall bit rate mode : Variable
Overall bit rate : 27.5 Mb/s
Movie name : A Woman / Женщина (1915) – RuTracker
Encoded date : UTC 2017-07-02 19:20:52
Writing application : mkvmerge v12.0.0 ('Trust / Lust') 64bit
Writing library : libebml v1.3.4 + libmatroska v1.4.5
Cover : Yes
Attachments : cover.jpg
Video
ID : 1
Format : AVC
Format/Info : Advanced Video Codec
Format profile : High@L4.1
Format settings, CABAC : Yes
Format settings, ReFrames : 3 frames
Codec ID : V_MPEG4/ISO/AVC
Duration : 23 min 20 s
Bit rate mode : Variable
Bit rate : 26.0 Mb/s
Maximum bit rate : 38.0 Mb/s
Width : 1 920 pixels
Height : 1 080 pixels
Display aspect ratio : 16:9
Frame rate mode : Constant
Frame rate : 24.000 FPS
Color space : YUV
Chroma subsampling : 4:2:0
Bit depth : 8 bits
Scan type : Progressive
Bits/(Pixel*Frame) : 0.522
Stream size : 4.19 GiB (93%)
Writing library : x264 core 128 r2216 198a7ea
Encoding settings : cabac=1 / ref=4 / deblock=0:-1:-1 / analyse=0x3:0x133 / me=umh / subme=10 / psy=1 / psy_rd=1.00:0.15 / mixed_ref=1 / me_range=24 / chroma_me=1 / trellis=2 / 8x8dct=1 / cqm=1 / deadzone=21,11 / fast_pskip=1 / chroma_qp_offset=-3 / threads=12 / lookahead_threads=2 / sliced_threads=0 / slices=4 / nr=0 / decimate=1 / interlaced=0 / bluray_compat=1 / constrained_intra=0 / bframes=3 / b_pyramid=1 / b_adapt=2 / b_bias=0 / direct=3 / weightb=1 / open_gop=1 / weightp=1 / keyint=24 / keyint_min=1 / scenecut=40 / intra_refresh=0 / rc_lookahead=24 / rc=2pass / mbtree=1 / bitrate=26000 / ratetol=1.0 / qcomp=0.20 / qpmin=4 / qpmax=69 / qpstep=4 / cplxblur=20.0 / qblur=0.5 / vbv_maxrate=38000 / vbv_bufsize=28500 / nal_hrd=vbr / ip_ratio=1.40 / aq=1:1.00
Language : English
Default : Yes
Forced : No
Color range : Limited
Color primaries : BT.709
Transfer characteristics : BT.709
Matrix coefficients : BT.709
Audio #1
ID : 2
Format : AC-3
Format/Info : Audio Coding 3
Format settings, Endianness : Big
Codec ID : A_AC3
Duration : 23 min 2 s
Bit rate mode : Constant
Bit rate : 192 kb/s
Channel(s) : 2 channels
Channel positions : Front: L R
Sampling rate : 48.0 kHz
Frame rate : 31.250 FPS (1536 spf)
Bit depth : 16 bits
Compression mode : Lossy
Stream size : 31.6 MiB (1%)
Title : VO – Мастер Тэйп
Language : Russian
Service kind : Complete Main
Default : Yes
Forced : No
Audio #2
ID : 3
Format : DTS
Format/Info : Digital Theater Systems
Format profile : MA / Core
Mode : 16
Format settings, Endianness : Big
Codec ID : A_DTS
Duration : 23 min 11 s
Bit rate mode : Variable / Constant
Bit rate : 1 603 kb/s / 1 509 kb/s
Channel(s) : 2 channels
Channel positions : Front: L R
Sampling rate : 48.0 kHz
Frame rate : 93.750 FPS (512 spf)
Bit depth : 16 bits
Compression mode : Lossless / Lossy
Stream size : 266 MiB (6%)
Title : Music compiled by Rodney Sauer and played by The Mont Alto Motion Picture Orchestra
Language : zxx
Default : No
Forced : No
Text
ID : 4
Format : UTF-8
Codec ID : S_TEXT/UTF8
Codec ID/Info : UTF-8 Plain Text
Duration : 22 min 25 s
Bit rate : 4 b/s
Count of elements : 17
Stream size : 704 Bytes (0%)
Language : Russian
Default : No
Forced : No
Menu
00:00:00.000 : en:Chapter 1
00:10:48.583 : en:Chapter 2

11. The Bank / Банк

Год выпуска: 1915
Продолжительность: 00:25:20-В ролях: Чарльз Чаплин, Эдна Пёвайнс, Билли Армстронг, Карл Стокдейл, Чарльз Инсли, Ллойд Бэйкон, Лоуренс А. Боус, Фрэнк Дж. Коулмэн, Фред Гудвинс, Ли Хилл-Описание:
На этот раз Маленький Бродяга работает уборщиком в банке. Он влюблен в прекрасную секретаршу и ненавидит своего босса. Когда в банк врываются грабители, Чарли получает шанс показать свою смелость.-

MI

General
Unique ID : 186796752971392340455491857738317940408 (0x8C87BEFA4300E89C9736A9D27BB3C6B8)
Complete name : Chaplin's Essanay Comedies (1915-1916) BDRemux\11.The.Bank.1915.1080p.BDRemux.mkv
Format : Matroska
Format version : Version 2
File size : 4.88 GiB
Duration : 25 min 20 s
Overall bit rate mode : Variable
Overall bit rate : 27.6 Mb/s
Movie name : The Bank / Банк (1915) – RuTracker
Encoded date : UTC 2017-07-02 19:26:41
Writing application : mkvmerge v12.0.0 ('Trust / Lust') 64bit
Writing library : libebml v1.3.4 + libmatroska v1.4.5
Cover : Yes
Attachments : cover.jpg
Video
ID : 1
Format : AVC
Format/Info : Advanced Video Codec
Format profile : High@L4.1
Format settings, CABAC : Yes
Format settings, ReFrames : 3 frames
Codec ID : V_MPEG4/ISO/AVC
Duration : 25 min 20 s
Bit rate mode : Variable
Bit rate : 26.0 Mb/s
Maximum bit rate : 38.0 Mb/s
Width : 1 920 pixels
Height : 1 080 pixels
Display aspect ratio : 16:9
Frame rate mode : Constant
Frame rate : 24.000 FPS
Color space : YUV
Chroma subsampling : 4:2:0
Bit depth : 8 bits
Scan type : Progressive
Bits/(Pixel*Frame) : 0.522
Stream size : 4.54 GiB (93%)
Writing library : x264 core 128 r2216 198a7ea
Encoding settings : cabac=1 / ref=4 / deblock=0:-1:-1 / analyse=0x3:0x133 / me=umh / subme=10 / psy=1 / psy_rd=1.00:0.15 / mixed_ref=1 / me_range=24 / chroma_me=1 / trellis=2 / 8x8dct=1 / cqm=1 / deadzone=21,11 / fast_pskip=1 / chroma_qp_offset=-3 / threads=12 / lookahead_threads=2 / sliced_threads=0 / slices=4 / nr=0 / decimate=1 / interlaced=0 / bluray_compat=1 / constrained_intra=0 / bframes=3 / b_pyramid=1 / b_adapt=2 / b_bias=0 / direct=3 / weightb=1 / open_gop=1 / weightp=1 / keyint=24 / keyint_min=1 / scenecut=40 / intra_refresh=0 / rc_lookahead=24 / rc=2pass / mbtree=1 / bitrate=26000 / ratetol=1.0 / qcomp=0.20 / qpmin=4 / qpmax=69 / qpstep=4 / cplxblur=20.0 / qblur=0.5 / vbv_maxrate=38000 / vbv_bufsize=28500 / nal_hrd=vbr / ip_ratio=1.40 / aq=1:1.00
Language : English
Default : Yes
Forced : No
Color range : Limited
Color primaries : BT.709
Transfer characteristics : BT.709
Matrix coefficients : BT.709
Audio #1
ID : 2
Format : AC-3
Format/Info : Audio Coding 3
Format settings, Endianness : Big
Codec ID : A_AC3
Duration : 25 min 3 s
Bit rate mode : Constant
Bit rate : 192 kb/s
Channel(s) : 2 channels
Channel positions : Front: L R
Sampling rate : 48.0 kHz
Frame rate : 31.250 FPS (1536 spf)
Bit depth : 16 bits
Compression mode : Lossy
Stream size : 34.4 MiB (1%)
Title : VO – Мастер Тэйп
Language : Russian
Service kind : Complete Main
Default : Yes
Forced : No
Audio #2
ID : 3
Format : DTS
Format/Info : Digital Theater Systems
Format profile : MA / Core
Mode : 16
Format settings, Endianness : Big
Codec ID : A_DTS
Duration : 25 min 11 s
Bit rate mode : Variable / Constant
Bit rate : 1 712 kb/s / 1 509 kb/s
Channel(s) : 2 channels
Channel positions : Front: L R
Sampling rate : 48.0 kHz
Frame rate : 93.750 FPS (512 spf)
Bit depth : 16 bits
Compression mode : Lossless / Lossy
Stream size : 309 MiB (6%)
Title : Music by Robert Israel
Language : zxx
Default : No
Forced : No
Text
ID : 4
Format : UTF-8
Codec ID : S_TEXT/UTF8
Codec ID/Info : UTF-8 Plain Text
Duration : 24 min 18 s
Bit rate : 5 b/s
Count of elements : 22
Stream size : 1 008 Bytes (0%)
Language : Russian
Default : No
Forced : No
Menu
00:00:00.000 : en:Chapter 1
00:12:05.500 : en:Chapter 2

12. Shanghaied / Завербованный / Зашанхаенный

Год выпуска: 1915
Продолжительность: 00:27:45-В ролях: Чарльз Чаплин, Эдна Пёвайнс, Билли Армстронг, Лоуренс А. Боус, Фред Гудвинс, Ли Хилл, Бад Джеймисон, Пэдди МакГуайр, Джон Рэнд, Уэсли Рагглз-Описание:
Прогуливающийся по городу бродяга получает предложение от нечистого на руку капитана судна завербовать пару-тройку людей в качестве матросов. Подписываясь под заманчивым предложением, герой Чарли даже и не подозревает, что оказывается обманутым. Теперь ему придётся смириться и работать не покладая рук, либо устроить бунт на корабле…-

MI

General
Unique ID : 237939797961874618949899579705608523394 (0xB30189C6886F17DBB95BA452A5E64E82)
Complete name : Chaplin's Essanay Comedies (1915-1916) BDRemux\12.Shanghaied.1915.1080p.BDRemux.mkv
Format : Matroska
Format version : Version 2
File size : 5.35 GiB
Duration : 27 min 45 s
Overall bit rate mode : Variable
Overall bit rate : 27.6 Mb/s
Movie name : Shanghaied / Завербованный / Зашанхаенный (1915) – RuTracker
Encoded date : UTC 2017-07-03 18:07:36
Writing application : mkvmerge v12.0.0 ('Trust / Lust') 64bit
Writing library : libebml v1.3.4 + libmatroska v1.4.5
Cover : Yes
Attachments : cover.jpg
Video
ID : 1
Format : AVC
Format/Info : Advanced Video Codec
Format profile : High@L4.1
Format settings, CABAC : Yes
Format settings, ReFrames : 3 frames
Codec ID : V_MPEG4/ISO/AVC
Duration : 27 min 45 s
Bit rate mode : Variable
Bit rate : 26.0 Mb/s
Maximum bit rate : 38.0 Mb/s
Width : 1 920 pixels
Height : 1 080 pixels
Display aspect ratio : 16:9
Frame rate mode : Constant
Frame rate : 24.000 FPS
Color space : YUV
Chroma subsampling : 4:2:0
Bit depth : 8 bits
Scan type : Progressive
Bits/(Pixel*Frame) : 0.522
Stream size : 4.98 GiB (93%)
Writing library : x264 core 128 r2216 198a7ea
Encoding settings : cabac=1 / ref=4 / deblock=0:-1:-1 / analyse=0x3:0x133 / me=umh / subme=10 / psy=1 / psy_rd=1.00:0.15 / mixed_ref=1 / me_range=24 / chroma_me=1 / trellis=2 / 8x8dct=1 / cqm=1 / deadzone=21,11 / fast_pskip=1 / chroma_qp_offset=-3 / threads=12 / lookahead_threads=2 / sliced_threads=0 / slices=4 / nr=0 / decimate=1 / interlaced=0 / bluray_compat=1 / constrained_intra=0 / bframes=3 / b_pyramid=1 / b_adapt=2 / b_bias=0 / direct=3 / weightb=1 / open_gop=1 / weightp=1 / keyint=24 / keyint_min=1 / scenecut=40 / intra_refresh=0 / rc_lookahead=24 / rc=2pass / mbtree=1 / bitrate=26000 / ratetol=1.0 / qcomp=0.20 / qpmin=4 / qpmax=69 / qpstep=4 / cplxblur=20.0 / qblur=0.5 / vbv_maxrate=38000 / vbv_bufsize=28500 / nal_hrd=vbr / ip_ratio=1.40 / aq=1:1.00
Language : English
Default : Yes
Forced : No
Color range : Limited
Color primaries : BT.709
Transfer characteristics : BT.709
Matrix coefficients : BT.709
Audio #1
ID : 2
Format : AC-3
Format/Info : Audio Coding 3
Format settings, Endianness : Big
Codec ID : A_AC3
Duration : 27 min 20 s
Bit rate mode : Constant
Bit rate : 192 kb/s
Channel(s) : 2 channels
Channel positions : Front: L R
Sampling rate : 48.0 kHz
Frame rate : 31.250 FPS (1536 spf)
Bit depth : 16 bits
Compression mode : Lossy
Stream size : 37.6 MiB (1%)
Title : VO – Мастер Тэйп
Language : Russian
Service kind : Complete Main
Default : Yes
Forced : No
Audio #2
ID : 3
Format : DTS
Format/Info : Digital Theater Systems
Format profile : MA / Core
Mode : 16
Format settings, Endianness : Big
Codec ID : A_DTS
Duration : 27 min 35 s
Bit rate mode : Variable / Constant
Bit rate : 1 710 kb/s / 1 509 kb/s
Channel(s) : 2 channels
Channel positions : Front: L R
Sampling rate : 48.0 kHz
Frame rate : 93.750 FPS (512 spf)
Bit depth : 16 bits
Compression mode : Lossless / Lossy
Stream size : 337 MiB (6%)
Title : Music by Robert Israel
Language : zxx
Default : No
Forced : No
Text
ID : 4
Format : UTF-8
Codec ID : S_TEXT/UTF8
Codec ID/Info : UTF-8 Plain Text
Duration : 24 min 55 s
Bit rate : 3 b/s
Count of elements : 13
Stream size : 715 Bytes (0%)
Language : Russian
Default : No
Forced : No
Menu
00:00:00.000 : en:Chapter 1
00:08:50.958 : en:Chapter 2
00:19:44.208 : en:Chapter 3

13. A Night in the Show / Вечер в мюзик-холле

Год выпуска: 1915
Продолжительность: 00:24:34-В ролях: Чарльз Чаплин, Эдна Пёвайнс, Филлис Аллен, Ллойд Бэйкон, Лоуренс А. Боус, Фрэнк Дж. Коулмэн, Фред Гудвинс, Чарльз Инсли, Бад Джеймисон, Джеймс Т. Келли-Описание:
Мистер Пест решил сходить в театр. Однако, там его поджидали многочисленные неприятности. Сначала он пробует занять несколько мест в театре, прежде чем вступает в драку с контролером…-

MI

General
Unique ID : 193849845285667440236394188331740443006 (0x91D61F46DD34098997696247F62E317E)
Complete name : Chaplin's Essanay Comedies (1915-1916) BDRemux\13.A.Night.in.the.Show.1915.1080p.BDRemux.mkv
Format : Matroska
Format version : Version 2
File size : 4.73 GiB
Duration : 24 min 34 s
Overall bit rate mode : Variable
Overall bit rate : 27.6 Mb/s
Movie name : A Night in the Show / Вечер в мюзик-холле (1915) – RuTracker
Encoded date : UTC 2017-07-03 19:02:43
Writing application : mkvmerge v12.0.0 ('Trust / Lust') 64bit
Writing library : libebml v1.3.4 + libmatroska v1.4.5
Cover : Yes
Attachments : cover.jpg
Video
ID : 1
Format : AVC
Format/Info : Advanced Video Codec
Format profile : High@L4.1
Format settings, CABAC : Yes
Format settings, ReFrames : 3 frames
Codec ID : V_MPEG4/ISO/AVC
Duration : 24 min 34 s
Bit rate mode : Variable
Bit rate : 26.0 Mb/s
Maximum bit rate : 38.0 Mb/s
Width : 1 920 pixels
Height : 1 080 pixels
Display aspect ratio : 16:9
Frame rate mode : Constant
Frame rate : 24.000 FPS
Color space : YUV
Chroma subsampling : 4:2:0
Bit depth : 8 bits
Scan type : Progressive
Bits/(Pixel*Frame) : 0.522
Stream size : 4.40 GiB (93%)
Writing library : x264 core 128 r2216 198a7ea
Encoding settings : cabac=1 / ref=4 / deblock=0:-1:-1 / analyse=0x3:0x133 / me=umh / subme=10 / psy=1 / psy_rd=1.00:0.15 / mixed_ref=1 / me_range=24 / chroma_me=1 / trellis=2 / 8x8dct=1 / cqm=1 / deadzone=21,11 / fast_pskip=1 / chroma_qp_offset=-3 / threads=12 / lookahead_threads=2 / sliced_threads=0 / slices=4 / nr=0 / decimate=1 / interlaced=0 / bluray_compat=1 / constrained_intra=0 / bframes=3 / b_pyramid=1 / b_adapt=2 / b_bias=0 / direct=3 / weightb=1 / open_gop=1 / weightp=1 / keyint=24 / keyint_min=1 / scenecut=40 / intra_refresh=0 / rc_lookahead=24 / rc=2pass / mbtree=1 / bitrate=26000 / ratetol=1.0 / qcomp=0.20 / qpmin=4 / qpmax=69 / qpstep=4 / cplxblur=20.0 / qblur=0.5 / vbv_maxrate=38000 / vbv_bufsize=28500 / nal_hrd=vbr / ip_ratio=1.40 / aq=1:1.00
Language : English
Default : Yes
Forced : No
Color range : Limited
Color primaries : BT.709
Transfer characteristics : BT.709
Matrix coefficients : BT.709
Audio #1
ID : 2
Format : AC-3
Format/Info : Audio Coding 3
Format settings, Endianness : Big
Codec ID : A_AC3
Duration : 24 min 16 s
Bit rate mode : Constant
Bit rate : 192 kb/s
Channel(s) : 2 channels
Channel positions : Front: L R
Sampling rate : 48.0 kHz
Frame rate : 31.250 FPS (1536 spf)
Bit depth : 16 bits
Compression mode : Lossy
Stream size : 33.3 MiB (1%)
Title : VO – Мастер Тэйп
Language : Russian
Service kind : Complete Main
Default : Yes
Forced : No
Audio #2
ID : 3
Format : DTS
Format/Info : Digital Theater Systems
Format profile : MA / Core
Mode : 16
Format settings, Endianness : Big
Codec ID : A_DTS
Duration : 24 min 24 s
Bit rate mode : Variable / Constant
Bit rate : 1 722 kb/s / 1 509 kb/s
Channel(s) : 2 channels
Channel positions : Front: L R
Sampling rate : 48.0 kHz
Frame rate : 93.750 FPS (512 spf)
Bit depth : 16 bits
Compression mode : Lossless / Lossy
Stream size : 301 MiB (6%)
Title : Music by Timothy Brock, played by the Teatro Comunale di Bologna Orchestra
Language : zxx
Default : No
Forced : No
Text
ID : 4
Format : UTF-8
Codec ID : S_TEXT/UTF8
Codec ID/Info : UTF-8 Plain Text
Duration : 21 min 21 s
Bit rate : 5 b/s
Count of elements : 14
Stream size : 817 Bytes (0%)
Language : Russian
Default : No
Forced : No
Menu
00:00:00.000 : en:Chapter 1
00:10:38.958 : en:Chapter 2
00:17:26.250 : en:Chapter 3

14. Burlesque on Carmen / Пародия на Кармен

Год выпуска: 1915
Продолжительность: 00:31:26-В ролях: Чарльз Чаплин, Эдна Пёвайнс, Питер Селлерс, Лоуренс А. Боус, Фрэнк Дж. Коулмэн, Джек Хендерсон, Бад Джеймисон, Джон Рэнд, Уэсли Рагглз, Бен Тёрпин-Описание:
Испанский офицер Дарн Хосьери соблазнен красивой цыганкой Кармен. Эта страсть ведет его к немилости и падению.-

MI

General
Unique ID : 216813130895783871546770897225083428500 (0xA31CB0AB3C6A45D2B9D8F34998169E94)
Complete name : Chaplin's Essanay Comedies (1915-1916) BDRemux\14.Burlesque.on.Carmen.1915.1080p.BDRemux.mkv
Format : Matroska
Format version : Version 2
File size : 6.07 GiB
Duration : 31 min 26 s
Overall bit rate mode : Variable
Overall bit rate : 27.6 Mb/s
Movie name : Burlesque on Carmen / Пародия на Кармен (1915) – RuTracker
Encoded date : UTC 2017-07-04 20:06:44
Writing application : mkvmerge v12.0.0 ('Trust / Lust') 64bit
Writing library : libebml v1.3.4 + libmatroska v1.4.5
Cover : Yes
Attachments : cover.jpg
Video
ID : 1
Format : AVC
Format/Info : Advanced Video Codec
Format profile : High@L4.1
Format settings, CABAC : Yes
Format settings, ReFrames : 3 frames
Codec ID : V_MPEG4/ISO/AVC
Duration : 31 min 26 s
Bit rate mode : Variable
Bit rate : 26.0 Mb/s
Maximum bit rate : 38.0 Mb/s
Width : 1 920 pixels
Height : 1 080 pixels
Display aspect ratio : 16:9
Frame rate mode : Constant
Frame rate : 24.000 FPS
Color space : YUV
Chroma subsampling : 4:2:0
Bit depth : 8 bits
Scan type : Progressive
Bits/(Pixel*Frame) : 0.522
Stream size : 5.66 GiB (93%)
Writing library : x264 core 128 r2216 198a7ea
Encoding settings : cabac=1 / ref=4 / deblock=0:-1:-1 / analyse=0x3:0x133 / me=umh / subme=10 / psy=1 / psy_rd=1.00:0.15 / mixed_ref=1 / me_range=24 / chroma_me=1 / trellis=2 / 8x8dct=1 / cqm=1 / deadzone=21,11 / fast_pskip=1 / chroma_qp_offset=-3 / threads=12 / lookahead_threads=2 / sliced_threads=0 / slices=4 / nr=0 / decimate=1 / interlaced=0 / bluray_compat=1 / constrained_intra=0 / bframes=3 / b_pyramid=1 / b_adapt=2 / b_bias=0 / direct=3 / weightb=1 / open_gop=1 / weightp=1 / keyint=24 / keyint_min=1 / scenecut=40 / intra_refresh=0 / rc_lookahead=24 / rc=2pass / mbtree=1 / bitrate=26000 / ratetol=1.0 / qcomp=0.20 / qpmin=4 / qpmax=69 / qpstep=4 / cplxblur=20.0 / qblur=0.5 / vbv_maxrate=38000 / vbv_bufsize=28500 / nal_hrd=vbr / ip_ratio=1.40 / aq=1:1.00
Language : English
Default : Yes
Forced : No
Color range : Limited
Color primaries : BT.709
Transfer characteristics : BT.709
Matrix coefficients : BT.709
Audio #1
ID : 2
Format : AC-3
Format/Info : Audio Coding 3
Format settings, Endianness : Big
Codec ID : A_AC3
Duration : 31 min 8 s
Bit rate mode : Constant
Bit rate : 192 kb/s
Channel(s) : 2 channels
Channel positions : Front: L R
Sampling rate : 48.0 kHz
Frame rate : 31.250 FPS (1536 spf)
Bit depth : 16 bits
Compression mode : Lossy
Stream size : 42.8 MiB (1%)
Title : VO – Мастер Тэйп
Language : Russian
Service kind : Complete Main
Default : Yes
Forced : No
Audio #2
ID : 3
Format : DTS
Format/Info : Digital Theater Systems
Format profile : MA / Core
Mode : 16
Format settings, Endianness : Big
Codec ID : A_DTS
Duration : 31 min 17 s
Bit rate mode : Variable / Constant
Bit rate : 1 684 kb/s / 1 509 kb/s
Channel(s) : 2 channels
Channel positions : Front: L R
Sampling rate : 48.0 kHz
Frame rate : 93.750 FPS (512 spf)
Bit depth : 16 bits
Compression mode : Lossless / Lossy
Stream size : 377 MiB (6%)
Title : Music by Timothy Brock, played by the Teatro Comunale di Bologna Orchestra
Language : zxx
Default : No
Forced : No
Text
ID : 4
Format : UTF-8
Codec ID : S_TEXT/UTF8
Codec ID/Info : UTF-8 Plain Text
Duration : 29 min 39 s
Bit rate : 14 b/s
Count of elements : 51
Stream size : 3.21 KiB (0%)
Language : Russian
Default : No
Forced : No
Menu
00:00:00.000 : en:Chapter 1
00:08:59.708 : en:Chapter 2
00:19:37.375 : en:Chapter 3

15. Police / Полиция

Год выпуска: 1916
Продолжительность: 00:26:03-В ролях: Чарльз Чаплин, Эдна Пёвайнс, Уэсли Рагглз, Джон Рэнд, Билли Армстронг, Фред Гудвинс, Бад Джеймисон, Джеймс Т. Келли, Пэдди МакГуайр-Описание:
Чарли выходит из тюрьмы и сразу попадает в лапы проповедника, который похищает его последние деньги. Бывший заключенный не может купить еды, и даже ночлежка оказывается ему не по карману. Вскоре он встречает на улице своего бывшего сокамерника, который предлагает ему ограбить один дом...-

MI

General
Unique ID : 193177859389802737108243734102466502206 (0x9154B3D06E2BAD53818A504E27FA1E3E)
Complete name : Chaplin's Essanay Comedies (1915-1916) BDRemux\15.Police.1916.1080p.BDRemux.mkv
Format : Matroska
Format version : Version 2
File size : 5.01 GiB
Duration : 26 min 3 s
Overall bit rate mode : Variable
Overall bit rate : 27.5 Mb/s
Movie name : Police / Полиция (1916) – RuTracker
Encoded date : UTC 2017-07-02 19:31:57
Writing application : mkvmerge v12.0.0 ('Trust / Lust') 64bit
Writing library : libebml v1.3.4 + libmatroska v1.4.5
Cover : Yes
Attachments : cover.jpg
Video
ID : 1
Format : AVC
Format/Info : Advanced Video Codec
Format profile : High@L4.1
Format settings, CABAC : Yes
Format settings, ReFrames : 3 frames
Codec ID : V_MPEG4/ISO/AVC
Duration : 26 min 3 s
Bit rate mode : Variable
Bit rate : 26.0 Mb/s
Maximum bit rate : 38.0 Mb/s
Width : 1 920 pixels
Height : 1 080 pixels
Display aspect ratio : 16:9
Frame rate mode : Constant
Frame rate : 24.000 FPS
Color space : YUV
Chroma subsampling : 4:2:0
Bit depth : 8 bits
Scan type : Progressive
Bits/(Pixel*Frame) : 0.522
Stream size : 4.67 GiB (93%)
Writing library : x264 core 128 r2216 198a7ea
Encoding settings : cabac=1 / ref=4 / deblock=0:-1:-1 / analyse=0x3:0x133 / me=umh / subme=10 / psy=1 / psy_rd=1.00:0.15 / mixed_ref=1 / me_range=24 / chroma_me=1 / trellis=2 / 8x8dct=1 / cqm=1 / deadzone=21,11 / fast_pskip=1 / chroma_qp_offset=-3 / threads=12 / lookahead_threads=2 / sliced_threads=0 / slices=4 / nr=0 / decimate=1 / interlaced=0 / bluray_compat=1 / constrained_intra=0 / bframes=3 / b_pyramid=1 / b_adapt=2 / b_bias=0 / direct=3 / weightb=1 / open_gop=1 / weightp=1 / keyint=24 / keyint_min=1 / scenecut=40 / intra_refresh=0 / rc_lookahead=24 / rc=2pass / mbtree=1 / bitrate=26000 / ratetol=1.0 / qcomp=0.20 / qpmin=4 / qpmax=69 / qpstep=4 / cplxblur=20.0 / qblur=0.5 / vbv_maxrate=38000 / vbv_bufsize=28500 / nal_hrd=vbr / ip_ratio=1.40 / aq=1:1.00
Language : English
Default : Yes
Forced : No
Color range : Limited
Color primaries : BT.709
Transfer characteristics : BT.709
Matrix coefficients : BT.709
Audio #1
ID : 2
Format : AC-3
Format/Info : Audio Coding 3
Format settings, Endianness : Big
Codec ID : A_AC3
Duration : 25 min 38 s
Bit rate mode : Constant
Bit rate : 192 kb/s
Channel(s) : 2 channels
Channel positions : Front: L R
Sampling rate : 48.0 kHz
Frame rate : 31.250 FPS (1536 spf)
Bit depth : 16 bits
Compression mode : Lossy
Stream size : 35.2 MiB (1%)
Title : VO – Мастер Тэйп
Language : Russian
Service kind : Complete Main
Default : Yes
Forced : No
Audio #2
ID : 3
Format : DTS
Format/Info : Digital Theater Systems
Format profile : MA / Core
Mode : 16
Format settings, Endianness : Big
Codec ID : A_DTS
Duration : 25 min 54 s
Bit rate mode : Variable / Constant
Bit rate : 1 657 kb/s / 1 509 kb/s
Channel(s) : 2 channels
Channel positions : Front: L R
Sampling rate : 48.0 kHz
Frame rate : 93.750 FPS (512 spf)
Bit depth : 16 bits
Compression mode : Lossless / Lossy
Stream size : 307 MiB (6%)
Title : Music by Robert Israel
Language : zxx
Default : No
Forced : No
Text
ID : 4
Format : UTF-8
Codec ID : S_TEXT/UTF8
Codec ID/Info : UTF-8 Plain Text
Duration : 22 min 43 s
Bit rate : 7 b/s
Count of elements : 20
Stream size : 1.21 KiB (0%)
Language : Russian
Default : No
Forced : No
Menu
00:00:00.000 : en:Chapter 1
00:10:15.667 : en:Chapter 2
00:21:17.417 : en:Chapter 3
Вы не можете начинать темы
Вы не можете отвечать на сообщения
Вы не можете редактировать свои сообщения
Вы не можете удалять свои сообщения
Вы не можете голосовать в опросах
Вы не можете прикреплять файлы к сообщениям
Вы можете скачивать файлы
!ВНИМАНИЕ!

Сайт не предоставляет электронные версии произведений, а занимается лишь коллекционированием и каталогизацией ссылок, присылаемых и публикуемых на форуме нашими читателями. Если вы являетесь правообладателем какого-либо представленного материала и не желаете, чтобы ссылка на него находилась в нашем каталоге, свяжитесь с нами, и мы незамедлительно удалим ее. Файлы для обмена на трекере предоставлены пользователями сайта, и администрация не несет ответственности за их содержание. Просьба не заливать файлы, защищенные авторскими правами, а также файлы нелегального содержания!

Искали программы, игры, дополнения, музыка mp3, аниме, аудио книги, журналы? Добро пожаловать на свободный торрент трекер Torrents, у нас можно скачать бесплатно, без смс и регистрации и прочих ограничений лучшие, отборные сборки программ, игр. Скачать торрентом не составит труда даже не опытному пользователю. Раздачи ежедневно обновляются, только лучшие и качественные раздачи, подробные описания и скриншоты. Огромная коллекция программ для работы со звуком, графикой, дизайном, а так же множество плагинов и инструментов к ним с подробной инструкцией и рекомендациями. Прошивки для навигаторов, карты. Разнообразные игры, для Windows, Linux. В коллекцие есть и старые игры любых жанров, Rpg, Action, Shooter, strategy Множество дополнений, модификаций, сценариев для популярных игр в жанре экш, рпг, гонки, стратегии, логические игры. Множество аддонов и сценариев для Microsoft Flight Simulator Большая коллекция книг, учебников. Если нет возможности купить печатное издание - смело скачивайте цифровую версию книги или, быть может, журнала. Не любите читать - можно загрузить бесплатно аудикнигу. Для веб дизайнеров и программистов так же найдется множество специализированного софта, таких как: редакторы с подсветкой, среды программирования, компоненты, системы управления базами данных, разнообразные скрипты и шаблоны. Не так давно у нас появился материал для автолюбителей и владельцев мото - оригинальные и неоригинальные каталоги запчастей, книги и журналы по ремонту и обслуживанию, видеоуроки, статьи по чип тюнингу, прошивкам. Процедура получения контента элементарная, достаточно просто скачать торрент файл и добавить его в загрузку в вашем торрент клиенте. Если у вас нет специального торрент клиента, вы можете его скачать у нас.

Las Vegas | Fast and Furious 8: The Fate of the Furious | Movies - HEVC