Асфальтовые джунгли / The Asphalt Jungle (Джон Хьюстон / John Huston) [1950, США, фильм-нуар, триллер, драма, криминал, BDRemux 1080p] 3x MVO + DVO + Sub Rus, Eng + Original Eng 

Цитировать
Асфальтовые джунглиThe Asphalt Jungle Год выпуска: 1950
Страна: США
Жанр: фильм-нуар, триллер, драма, криминал
Продолжительность: 01:52:25
Перевод 1: Профессиональный (многоголосый закадровый)
Перевод 2: Профессиональный (двухголосый закадровый) - Светла
Перевод 3: Профессиональный (многоголосый закадровый) - DVD-Classic
Перевод 4: Профессиональный (многоголосый закадровый) - SomeWax
Субтитры: русские (SomeWax), английские
Оригинальная аудиодорожка: английская
Режиссёр: Джон Хьюстон / John Huston
В ролях: Мэрилин Монро, Джон МакИнтайр, Стерлинг Хэйден, Сэм Джаффе, Брэд Декстер, Джеймс Уитмор, Луис Кэлхерн, Марк Лоуренс
Описание: Знаменитый медвежатник Док Риденшнайдер выходит из тюрьмы с готовым блестящим планом многомиллионной кражи со взломом. Он набирает группу профессионалов, а реализовать товар планирует через вальяжного скупщика краденого Эммериха. Свои преступные дела тот успешно сочетает с охмурением молоденькой любовницы - которая ждет от него слишком многого.
Для каждого в бригаде это ограбление должно было стать рубежом, после которого началась бы новая, сладкая жизнь. Сначала все идет как по маслу, но трагическое стечение обстоятельств заставляет гангстеров бороться уже не за деньги, а за жизнь.
Тип релиза: BDRemux 1080p
Контейнер: MKV
Видео: MPEG-4 AVC, 1920x1080 (16:9), 23.976 fps, 26022 kbps
Аудио : Russian AC3, 1.0 ch, 48KHz, 192 Kbps - MVO
Аудио 2: Russian AC3, 1.0 ch, 48KHz, 192 Kbps - DVO (Светла)
Аудио 3: Russian AC3, 1.0 ch, 48KHz, 192 Kbps - MVO (DVD-Classic)
Аудио 4: Russian AC3, 1.0 ch, 48KHz, 192 Kbps - MVO (SomeWax)
Аудио 5: English DTS-HD MA 1.0, 1024 kbps, 48 kHz, 24-bit (DTS Core: 1.0, 768 kbps, 48 kHz, 24-bit)
Формат субтитров: softsub (SRT)
Главы: есть
Доп. информация: За исходный ремукс спасибо Semvlk.
Сэмпл

MediaInfo

General
Unique ID : 199993437729738246826010655513378048068 (0x967555C5363EADF1854D31841A344844)
Complete name : D:\Асфальтовые джунгли - The Asphalt Jungle (1950).mkv
Format : Matroska
Format version : Version 4 / Version 2
File size : 21.8 GiB
Duration : 1 h 52 min
Overall bit rate mode : Variable
Overall bit rate : 27.8 Mb/s
Movie name : Асфальтовые джунгли / The Asphalt Jungle (1950) 1080p BDRemux
Encoded date : UTC 2017-06-17 19:15:04
Writing application : mkvmerge v12.0.0 ('Trust / Lust') 32bit
Writing library : libebml v1.3.4 + libmatroska v1.4.5
Cover : Yes
Attachments : cover.jpg
Video
ID : 1
Format : AVC
Format/Info : Advanced Video Codec
Format profile : High@L4.1
Format settings, CABAC : Yes
Format settings, ReFrames : 4 frames
Codec ID : V_MPEG4/ISO/AVC
Duration : 1 h 52 min
Bit rate mode : Variable
Bit rate : 26.0 Mb/s
Maximum bit rate : 37.0 Mb/s
Width : 1 920 pixels
Height : 1 080 pixels
Display aspect ratio : 16:9
Frame rate mode : Constant
Frame rate : 23.976 (24000/1001) FPS
Color space : YUV
Chroma subsampling : 4:2:0
Bit depth : 8 bits
Scan type : Progressive
Bits/(Pixel*Frame) : 0.523
Stream size : 20.4 GiB (94%)
Default : Yes
Forced : No
Audio #1
ID : 2
Format : AC-3
Format/Info : Audio Coding 3
Format settings, Endianness : Big
Codec ID : A_AC3
Duration : 1 h 52 min
Bit rate mode : Constant
Bit rate : 192 kb/s
Channel(s) : 1 channel
Channel positions : Front: C
Sampling rate : 48.0 kHz
Frame rate : 31.250 FPS (1536 spf)
Bit depth : 16 bits
Compression mode : Lossy
Stream size : 154 MiB (1%)
Title : MVO
Language : Russian
Service kind : Complete Main
Default : Yes
Forced : No
Audio #2
ID : 3
Format : AC-3
Format/Info : Audio Coding 3
Format settings, Endianness : Big
Codec ID : A_AC3
Duration : 1 h 52 min
Bit rate mode : Constant
Bit rate : 192 kb/s
Channel(s) : 1 channel
Channel positions : Front: C
Sampling rate : 48.0 kHz
Frame rate : 31.250 FPS (1536 spf)
Bit depth : 16 bits
Compression mode : Lossy
Stream size : 154 MiB (1%)
Title : DVO (Светла)
Language : Russian
Service kind : Complete Main
Default : No
Forced : No
Audio #3
ID : 4
Format : AC-3
Format/Info : Audio Coding 3
Format settings, Endianness : Big
Codec ID : A_AC3
Duration : 1 h 52 min
Bit rate mode : Constant
Bit rate : 192 kb/s
Channel(s) : 1 channel
Channel positions : Front: C
Sampling rate : 48.0 kHz
Frame rate : 31.250 FPS (1536 spf)
Bit depth : 16 bits
Compression mode : Lossy
Stream size : 154 MiB (1%)
Title : MVO (DVD-Classic)
Language : Russian
Service kind : Complete Main
Default : No
Forced : No
Audio #4
ID : 5
Format : AC-3
Format/Info : Audio Coding 3
Format settings, Endianness : Big
Codec ID : A_AC3
Duration : 1 h 52 min
Bit rate mode : Constant
Bit rate : 192 kb/s
Channel(s) : 1 channel
Channel positions : Front: C
Sampling rate : 48.0 kHz
Frame rate : 31.250 FPS (1536 spf)
Bit depth : 16 bits
Compression mode : Lossy
Stream size : 154 MiB (1%)
Title : MVO (SomeWax)
Language : Russian
Service kind : Complete Main
Default : No
Forced : No
Audio #5
ID : 6
Format : DTS
Format/Info : Digital Theater Systems
Format profile : MA / Core
Mode : 16
Format settings, Endianness : Big
Codec ID : A_DTS
Duration : 1 h 52 min
Bit rate mode : Variable / Constant
Bit rate : 1 024 kb/s / 768 kb/s
Channel(s) : 1 channel
Channel positions : Front: C
Sampling rate : 48.0 kHz
Frame rate : 93.750 FPS (512 spf)
Bit depth : 24 bits
Compression mode : Lossless / Lossy
Delay relative to video : 21 ms
Stream size : 827 MiB (4%)
Language : English
Default : No
Forced : No
Text #1
ID : 7
Format : UTF-8
Codec ID : S_TEXT/UTF8
Codec ID/Info : UTF-8 Plain Text
Duration : 1 h 51 min
Bit rate : 89 b/s
Count of elements : 1580
Stream size : 72.7 KiB (0%)
Language : Russian
Default : No
Forced : No
Text #2
ID : 8
Format : UTF-8
Codec ID : S_TEXT/UTF8
Codec ID/Info : UTF-8 Plain Text
Duration : 1 h 51 min
Bit rate : 81 b/s
Count of elements : 1689
Stream size : 66.5 KiB (0%)
Language : English
Default : No
Forced : No
Menu
00:00:00.000 : en:
00:03:35.047 : en:
00:05:27.368 : en:
00:07:40.376 : en:
00:12:59.904 : en:
00:15:26.175 : en:
00:16:30.113 : en:
00:19:01.556 : en:
00:23:09.595 : en:
00:25:20.644 : en:
00:28:43.345 : en:
00:32:56.683 : en:
00:37:22.031 : en:
00:40:42.648 : en:
00:42:46.604 : en:
00:44:33.170 : en:
00:46:26.073 : en:
00:58:11.863 : en:
01:05:02.064 : en:
01:07:37.844 : en:
01:10:08.537 : en:
01:15:39.743 : en:
01:20:45.966 : en:
01:23:07.732 : en:
01:26:08.287 : en:
01:32:36.049 : en:
01:33:51.791 : en:
01:39:02.519 : en:
01:43:13.187 : en:
01:47:04.166 : en:
01:49:07.165 : en:

Скриншоты

Вы не можете начинать темы
Вы не можете отвечать на сообщения
Вы не можете редактировать свои сообщения
Вы не можете удалять свои сообщения
Вы не можете голосовать в опросах
Вы не можете прикреплять файлы к сообщениям
Вы можете скачивать файлы
!ВНИМАНИЕ!

Сайт не предоставляет электронные версии произведений, а занимается лишь коллекционированием и каталогизацией ссылок, присылаемых и публикуемых на форуме нашими читателями. Если вы являетесь правообладателем какого-либо представленного материала и не желаете, чтобы ссылка на него находилась в нашем каталоге, свяжитесь с нами, и мы незамедлительно удалим ее. Файлы для обмена на трекере предоставлены пользователями сайта, и администрация не несет ответственности за их содержание. Просьба не заливать файлы, защищенные авторскими правами, а также файлы нелегального содержания!

Искали программы, игры, дополнения, музыка mp3, аниме, аудио книги, журналы? Добро пожаловать на свободный торрент трекер Torrents, у нас можно скачать бесплатно, без смс и регистрации и прочих ограничений лучшие, отборные сборки программ, игр. Скачать торрентом не составит труда даже не опытному пользователю. Раздачи ежедневно обновляются, только лучшие и качественные раздачи, подробные описания и скриншоты. Огромная коллекция программ для работы со звуком, графикой, дизайном, а так же множество плагинов и инструментов к ним с подробной инструкцией и рекомендациями. Прошивки для навигаторов, карты. Разнообразные игры, для Windows, Linux. В коллекцие есть и старые игры любых жанров, Rpg, Action, Shooter, strategy Множество дополнений, модификаций, сценариев для популярных игр в жанре экш, рпг, гонки, стратегии, логические игры. Множество аддонов и сценариев для Microsoft Flight Simulator Большая коллекция книг, учебников. Если нет возможности купить печатное издание - смело скачивайте цифровую версию книги или, быть может, журнала. Не любите читать - можно загрузить бесплатно аудикнигу. Для веб дизайнеров и программистов так же найдется множество специализированного софта, таких как: редакторы с подсветкой, среды программирования, компоненты, системы управления базами данных, разнообразные скрипты и шаблоны. Не так давно у нас появился материал для автолюбителей и владельцев мото - оригинальные и неоригинальные каталоги запчастей, книги и журналы по ремонту и обслуживанию, видеоуроки, статьи по чип тюнингу, прошивкам. Процедура получения контента элементарная, достаточно просто скачать торрент файл и добавить его в загрузку в вашем торрент клиенте. Если у вас нет специального торрент клиента, вы можете его скачать у нас.

Venom 2018 720p HDCAM FOXPRO torrent | Download | 携帯電話フレックスケーブル