Приближается всадник / Comes a Horseman (Алан Дж. Пакула / Alan J. Pakula) [1978, США, драма, мелодрама, вестерн, BDRip 720p] DVO + Sub Eng + Original Eng 

Цитировать
Приближается всадник / Comes a Horseman
Страна: США
Жанр: драма, мелодрама, вестерн
Год выпуска: 1978
Продолжительность: 01:58:36
Перевод: Профессиональный (двухголосый закадровый)
Субтитры: английские
Оригинальная аудиодорожка: английский-Режиссер: Алан Дж. Пакула / Alan J. Pakula-В ролях: Джеймс Каан, Джейн Фонда, Джейсон Робардс, Джордж Гриззард, Ричард Фарнсуорт, Джим Дэвис, Марк Хэрмон, Макон МакКалман, Бэзил Хоффман, Джеймс Кляйн-Описание: Когда миловидную вдову вынуждают передать старенькую ферму ее бывшему, бессовестному и могущественному любовнику, она, в последней попытке спасти хозяйство, обращается за поддержкой к враждующему с ней соседу.
С великой изобретательностью и усилиями они сводят концы с концами, лишь бы выплатить долги. Но настоящие неприятности для них еще только начинаются.-Релиз от:
by Delia-Качество видео: BDRip
Формат видео: MKV
Видео: 1280x534 at 23.976 fps, x264@L4.1, 9688 kbps
Аудио 1: Russian: 48 kHz, AC3, 2/0 (L,R) ch, ~192.00 kbps avg |Двухголосый закадровый|
Аудио 2: English: 48 kHzt, FLAC 2.0, ~285.00 kbps avg
Аудио 3: English: 48 kHzt, FLAC 2.0, ~268.00 kbps avg |музыкальные фрагменты|-Скачать сэмпл-
  • Сохранены оригинальные чаптеры как на Blu-ray.

MediaInfo

Format                      : Matroska
Format version              : Version 4 / Version 2
File size                   : 8.65 GiB
Duration                    : 1 h 58 min
Overall bit rate mode       : Variable
Overall bit rate            : 10.4 Mb/s
Encoded date                : UTC 2017-06-21 07:12:24
Writing application         : mkvmerge v12.0.0 ('Trust / Lust') 64bit
Writing library             : libebml v1.3.4 + libmatroska v1.4.5
Cover                       : Yes
Attachments                 : cover.jpg
Video
ID                          : 1
Format                      : AVC
Format/Info                 : Advanced Video Codec
Format profile              : High@L4.1
Format settings, CABAC      : Yes
Format settings, ReFrames   : 12 frames
Codec ID                    : V_MPEG4/ISO/AVC
Duration                    : 1 h 58 min
Bit rate                    : 9 688 kb/s
Width                       : 1 280 pixels
Height                      : 534 pixels
Display aspect ratio        : 2.40:1
Frame rate mode             : Constant
Frame rate                  : 23.976 (24000/1001) FPS
Color space                 : YUV
Chroma subsampling          : 4:2:0
Bit depth                   : 8 bits
Scan type                   : Progressive
Bits/(Pixel*Frame)          : 0.591
Stream size                 : 8.03 GiB (93%)
Writing library             : x264 core 150 r2833kMod df79067
Encoding settings           : cabac=1 / ref=12 / deblock=1:-3:-3 / analyse=0x3:0x133 / me=umh / subme=10 / psy=1 / fade_compensate=0.00 / psy_rd=1.00:0.05 / mixed_ref=1 / me_range=32 / chroma_me=1 / trellis=2 / 8x8dct=1 / cqm=0 / deadzone=21,11 / fast_pskip=0 / chroma_qp_offset=-3 / threads=6 / lookahead_threads=1 / sliced_threads=0 / nr=0 / decimate=1 / interlaced=0 / bluray_compat=0 / constrained_intra=0 / bframes=8 / b_pyramid=2 / b_adapt=2 / b_bias=0 / direct=3 / weightb=1 / open_gop=0 / weightp=2 / keyint=250 / keyint_min=23 / scenecut=40 / intra_refresh=0 / rc_lookahead=60 / rc=crf / mbtree=0 / crf=16.5000 / qcomp=0.57 / qpmin=0 / qpmax=69 / qpstep=4 / vbv_maxrate=62500 / vbv_bufsize=78125 / crf_max=0.0 / nal_hrd=none / filler=0 / ip_ratio=1.30 / pb_ratio=1.20 / aq=1:0.65
Language                    : English
Default                     : Yes
Forced                      : No
Color range                 : Limited
Color primaries             : BT.709
Transfer characteristics    : BT.709
Matrix coefficients         : BT.709
Audio #1
ID                          : 2
Format                      : AC-3
Format/Info                 : Audio Coding 3
Format settings, Endianness : Big
Codec ID                    : A_AC3
Duration                    : 1 h 58 min
Bit rate mode               : Constant
Bit rate                    : 192 kb/s
Channel(s)                  : 2 channels
Channel positions           : Front: L R
Sampling rate               : 48.0 kHz
Frame rate                  : 31.250 FPS (1536 spf)
Bit depth                   : 16 bits
Compression mode            : Lossy
Stream size                 : 163 MiB (2%)
Title                       : Двухголосый закадровый
Language                    : Russian
Service kind                : Complete Main
Default                     : Yes
Forced                      : No
Audio #2
ID                          : 3
Format                      : FLAC
Format/Info                 : Free Lossless Audio Codec
Codec ID                    : A_FLAC
Duration                    : 1 h 58 min
Bit rate mode               : Variable
Bit rate                    : 285 kb/s
Channel(s)                  : 2 channels
Channel positions           : Front: L R
Sampling rate               : 48.0 kHz
Frame rate                  : 11.719 FPS (4096 spf)
Bit depth                   : 16 bits
Stream size                 : 242 MiB (3%)
Writing library             : libFLAC 1.2.1 (UTC 2007-09-17)
Language                    : English
Default                     : No
Forced                      : No
Audio #3
ID                          : 4
Format                      : FLAC
Format/Info                 : Free Lossless Audio Codec
Codec ID                    : A_FLAC
Duration                    : 1 h 58 min
Bit rate mode               : Variable
Bit rate                    : 268 kb/s
Channel(s)                  : 2 channels
Channel positions           : Front: L R
Sampling rate               : 48.0 kHz
Frame rate                  : 11.719 FPS (4096 spf)
Bit depth                   : 16 bits
Stream size                 : 227 MiB (3%)
Title                       : музыкальные фрагменты
Writing library             : libFLAC 1.2.1 (UTC 2007-09-17)
Language                    : English
Default                     : No
Forced                      : No
Text #1
ID                          : 5
Format                      : UTF-8
Codec ID                    : S_TEXT/UTF8
Codec ID/Info               : UTF-8 Plain Text
Duration                    : 1 h 50 min
Bit rate                    : 33 b/s
Count of elements           : 903
Stream size                 : 27.4 KiB (0%)
Language                    : English
Default                     : No
Forced                      : No
Text #2
ID                          : 6
Format                      : UTF-8
Codec ID                    : S_TEXT/UTF8
Codec ID/Info               : UTF-8 Plain Text
Duration                    : 1 h 53 min
Bit rate                    : 36 b/s
Count of elements           : 1035
Stream size                 : 30.2 KiB (0%)
Title                       : SDH
Language                    : English
Default                     : No
Forced                      : No
Menu
00:00:00.000                : en:00:00:00.000
00:05:24.323                : en:00:05:24.323
00:09:46.419                : en:00:09:46.419
00:15:08.407                : en:00:15:08.407
00:20:09.750                : en:00:20:09.750
00:25:38.328                : en:00:25:38.328
00:30:03.384                : en:00:30:03.384
00:34:52.757                : en:00:34:52.757
00:40:38.394                : en:00:40:38.394
00:46:43.050                : en:00:46:43.050
00:52:36.903                : en:00:52:36.903
00:56:11.826                : en:00:56:11.826
01:02:03.594                : en:01:02:03.594
01:07:11.819                : en:01:07:11.819
01:11:23.779                : en:01:11:23.779
01:17:07.080                : en:01:17:07.080
01:22:09.799                : en:01:22:09.799
01:26:04.409                : en:01:26:04.409
01:28:10.952                : en:01:28:10.952
01:34:40.049                : en:01:34:40.049
01:42:47.286                : en:01:42:47.286
01:45:48.550                : en:01:45:48.550
01:49:11.920                : en:01:49:11.920
01:55:57.950                : en:01:55:57.950

Скриншоты

Вы не можете начинать темы
Вы не можете отвечать на сообщения
Вы не можете редактировать свои сообщения
Вы не можете удалять свои сообщения
Вы не можете голосовать в опросах
Вы не можете прикреплять файлы к сообщениям
Вы можете скачивать файлы
!ВНИМАНИЕ!

Сайт не предоставляет электронные версии произведений, а занимается лишь коллекционированием и каталогизацией ссылок, присылаемых и публикуемых на форуме нашими читателями. Если вы являетесь правообладателем какого-либо представленного материала и не желаете, чтобы ссылка на него находилась в нашем каталоге, свяжитесь с нами, и мы незамедлительно удалим ее. Файлы для обмена на трекере предоставлены пользователями сайта, и администрация не несет ответственности за их содержание. Просьба не заливать файлы, защищенные авторскими правами, а также файлы нелегального содержания!

Искали программы, игры, дополнения, музыка mp3, аниме, аудио книги, журналы? Добро пожаловать на свободный торрент трекер Torrents, у нас можно скачать бесплатно, без смс и регистрации и прочих ограничений лучшие, отборные сборки программ, игр. Скачать торрентом не составит труда даже не опытному пользователю. Раздачи ежедневно обновляются, только лучшие и качественные раздачи, подробные описания и скриншоты. Огромная коллекция программ для работы со звуком, графикой, дизайном, а так же множество плагинов и инструментов к ним с подробной инструкцией и рекомендациями. Прошивки для навигаторов, карты. Разнообразные игры, для Windows, Linux. В коллекцие есть и старые игры любых жанров, Rpg, Action, Shooter, strategy Множество дополнений, модификаций, сценариев для популярных игр в жанре экш, рпг, гонки, стратегии, логические игры. Множество аддонов и сценариев для Microsoft Flight Simulator Большая коллекция книг, учебников. Если нет возможности купить печатное издание - смело скачивайте цифровую версию книги или, быть может, журнала. Не любите читать - можно загрузить бесплатно аудикнигу. Для веб дизайнеров и программистов так же найдется множество специализированного софта, таких как: редакторы с подсветкой, среды программирования, компоненты, системы управления базами данных, разнообразные скрипты и шаблоны. Не так давно у нас появился материал для автолюбителей и владельцев мото - оригинальные и неоригинальные каталоги запчастей, книги и журналы по ремонту и обслуживанию, видеоуроки, статьи по чип тюнингу, прошивкам. Процедура получения контента элементарная, достаточно просто скачать торрент файл и добавить его в загрузку в вашем торрент клиенте. Если у вас нет специального торрент клиента, вы можете его скачать у нас.

基本事務所 | the six ethical principles of a professional organization | EMPiRE (45) - The Empire Strikes Start!! (Cass, Album, Ltd)