Как пришить свою женушку / How to Murder Your Wife (Ричард Куайн / Richard Quine) [1965, США, мелодрама, комедия, BDRemux 1080p] 2x MVO + DVO + Sub Rus, Eng + Original Eng 

Цитировать
Как пришить свою женушку / How to Murder Your Wife
Страна: США
Студия: Murder Inc.
Жанр: мелодрама, комедия
Год выпуска: 1965
Продолжительность: 01:58:54
Перевод 1: Профессиональный (многоголосый закадровый) DVD Магия
Перевод 2: Профессиональный (многоголосый закадровый) SomeWax
Перевод 3: Профессиональный (двухголосый закадровый) НТВ+
Субтитры: русские, английские
Оригинальная аудиодорожка: английский
Режиссер: Ричард Куайн / Richard Quine
В ролях: Джек Леммон, Вирна Лизи, Терри-Томас, Эдди Мэйехофф, Клер Тревор, Сидни Блэкмер, Макс Шоуолтер, Джек Альбертсон, Мэри Уикс, Алан Хьюит, Бэрри Келли, Бэрри Келли, Чарльз Бейтман, Эдвард Фолкнер, Лорен Гилберт, Ховард Уенделл и др.
Описание: Художник-аниматор Стэнли Форд, автор популярнейших комиксов о суперагенте, не знает ни забот, ни печалей и вовсю наслаждается жизнью холостяка. Все приключения своего нарисованного героя, прежде чем перенести их на бумагу, он предварительно испытывает на себе. Захватывающие погони, перестрелки, любовные похождения, светские рауты… И вот после очередной вечеринки он просыпается женатым на итальянке, ни слова не понимающей по-английски. Жизнь Стэнли, такая привычная и во всех отношениях приятная, начинает рушиться. Вскоре у него в голове рождается сюжет очередного комикса: «Как пришить свою жёнушку»…
-
Сэмпл IMDB Кинопоиск
-
Тип релиза: BDRemux 1080p (How.To.Murder.Your.Wife.1965.1080p.BluRay.REMUX.AVC.DTS-HD.MA.2.0-FGT)
Контейнер: MKV
Видео: AVC / 1920x1080 / 16:9 / 23.976fps / 22825Kbps / High@L4.1
Аудио 1 Rus: AC3 / 48.0 KHz / 2.0 / 192kbps / MVO / DVD Магия
Аудио 2 Rus: AC3 / 48.0 KHz / 2.0 / 192kbps / MVO / SomeWax
Аудио 3 Rus: AC3 / 48.0 KHz / 2.0 / 192kbps / DVO /НТВ+
Аудио 4 Eng: DTS-HD MA / 48.0 KHz / 2.0 / 1568kbps / 24bit (DTS Core 48.0 KHz / 6ch / 1509kbps / 24bit)
Формат субтитров: softsub (SRT)

MediaInfo

Общее
Уникальный идентификатор : 234050973892044543942923354242906794522 (0xB01493F21E0E17FB99D1C68925A72A1A)
Полное имя : E:\!_HD\porvaliparus\How.To.Murder.Your.Wife.1965-BDRemux.1080p.mkv
Формат : Matroska
Версия формата : Version 4 / Version 2
Размер файла : 20,7 Гбайт
Продолжительность : 1 ч. 58 м.
Режим общего битрейта : Переменный
Общий поток : 25,0 Мбит/сек
Название фильма : How.To.Murder.Your.Wife.1965.BDRemux.1080p-porvaliparus
Дата кодирования : UTC 2017-06-08 01:29:39
Программа кодирования : mkvmerge v12.0.0 ('Trust / Lust') 64bit
Библиотека кодирования : libebml v1.3.4 + libmatroska v1.4.5
Видео
Идентификатор : 1
Формат : AVC
Формат/Информация : Advanced Video Codec
Профиль формата : High@L4.1
Параметр CABAC формата : Да
Параметр ReFrames формата : 3 кадра
Идентификатор кодека : V_MPEG4/ISO/AVC
Продолжительность : 1 ч. 58 м.
Вид битрейта : Переменный
Битрейт : 22,8 Мбит/сек
Максимальный битрейт : 35,0 Мбит/сек
Ширина : 1920 пикселей
Высота : 1080 пикселей
Соотношение сторон : 16:9
Режим частоты кадров : Постоянный
Частота кадров : 23,976 (24000/1001) кадра/сек
Стандарт вещания : NTSC
Цветовое пространство : YUV
Субдискретизация насыщенности : 4:2:0
Битовая глубина : 8 бит
Тип развёртки : Прогрессивная
Бит/(Пиксели*Кадры) : 0.459
Размер потока : 19,0 Гбайт (91%)
Заголовок : How.To.Murder.Your.Wife.1965.BDRemux.1080p
Default : Да
Forced : Нет
Цветовой диапазон : Limited
Основные цвета : BT.709
Характеристики трансфера : BT.709
Коэффициенты матрицы : BT.709
Аудио #1
Идентификатор : 2
Формат : AC-3
Формат/Информация : Audio Coding 3
Параметр Endianness формата : Big
Идентификатор кодека : A_AC3
Продолжительность : 1 ч. 58 м.
Вид битрейта : Постоянный
Битрейт : 192 Кбит/сек
Каналы : 2 канала
Расположение каналов : Front: L R
Частота : 48,0 КГц
Частота кадров : 31,250 кадров/сек (1536 spf)
Битовая глубина : 16 бит
Метод сжатия : С потерями
Размер потока : 163 Мбайт (1%)
Заголовок : MVO [DVD Магия]
Язык : Russian
ServiceKind/String : Complete Main
Default : Да
Forced : Нет
Аудио #2
Идентификатор : 3
Формат : AC-3
Формат/Информация : Audio Coding 3
Параметр Endianness формата : Big
Идентификатор кодека : A_AC3
Продолжительность : 1 ч. 58 м.
Вид битрейта : Постоянный
Битрейт : 192 Кбит/сек
Каналы : 2 канала
Расположение каналов : Front: L R
Частота : 48,0 КГц
Частота кадров : 31,250 кадров/сек (1536 spf)
Битовая глубина : 16 бит
Метод сжатия : С потерями
Размер потока : 163 Мбайт (1%)
Заголовок : MVO [SomeWax]
Язык : Russian
ServiceKind/String : Complete Main
Default : Нет
Forced : Нет
Аудио #3
Идентификатор : 4
Формат : AC-3
Формат/Информация : Audio Coding 3
Параметр Endianness формата : Big
Идентификатор кодека : A_AC3
Продолжительность : 1 ч. 58 м.
Вид битрейта : Постоянный
Битрейт : 192 Кбит/сек
Каналы : 2 канала
Расположение каналов : Front: L R
Частота : 48,0 КГц
Частота кадров : 31,250 кадров/сек (1536 spf)
Битовая глубина : 16 бит
Метод сжатия : С потерями
Размер потока : 163 Мбайт (1%)
Заголовок : DVO [НТВ+]
Язык : Russian
ServiceKind/String : Complete Main
Default : Нет
Forced : Нет
Аудио #4
Идентификатор : 5
Формат : DTS
Формат/Информация : Digital Theater Systems
Профиль формата : MA / Core
Режим : 16
Параметр Endianness формата : Big
Идентификатор кодека : A_DTS
Продолжительность : 1 ч. 58 м.
Вид битрейта : Переменный / Постоянный
Битрейт : 1568 Кбит/сек / 1509 Кбит/сек
Каналы : 2 канала
Расположение каналов : Front: L R
Частота : 48,0 КГц
Частота кадров : 93,750 кадра/сек (512 spf)
Битовая глубина : 24 бит
Метод сжатия : Без потерь / Lossy
Размер потока : 1,30 Гбайт (6%)
Язык : English
Default : Нет
Forced : Нет
Текст #1
Идентификатор : 6
Формат : UTF-8
Идентификатор кодека : S_TEXT/UTF8
Идентификатор кодека/Информация : UTF-8 Plain Text
Продолжительность : 1 ч. 57 м.
Битрейт : 77 бит/сек
ElementCount : 1146
Размер потока : 66,6 Кбайт (0%)
Язык : Russian
Default : Нет
Forced : Нет
Текст #2
Идентификатор : 7
Формат : UTF-8
Идентификатор кодека : S_TEXT/UTF8
Идентификатор кодека/Информация : UTF-8 Plain Text
Продолжительность : 1 ч. 58 м.
Битрейт : 49 бит/сек
ElementCount : 1168
Размер потока : 43,1 Кбайт (0%)
Язык : English
Default : Нет
Forced : Нет
Меню
00:00:00.000 : en:Chapter 01
00:00:10.927 : en:Chapter 02
00:13:23.093 : en:Chapter 03
00:30:46.302 : en:Chapter 04
00:43:18.053 : en:Chapter 05
00:58:31.925 : en:Chapter 06
01:15:01.413 : en:Chapter 07
01:30:40.726 : en:Chapter 08
01:41:34.463 : en:Chapter 09
01:58:43.074 : en:Chapter 10

Скриншоты


Вы не можете начинать темы
Вы не можете отвечать на сообщения
Вы не можете редактировать свои сообщения
Вы не можете удалять свои сообщения
Вы не можете голосовать в опросах
Вы не можете прикреплять файлы к сообщениям
Вы можете скачивать файлы
!ВНИМАНИЕ!

Сайт не предоставляет электронные версии произведений, а занимается лишь коллекционированием и каталогизацией ссылок, присылаемых и публикуемых на форуме нашими читателями. Если вы являетесь правообладателем какого-либо представленного материала и не желаете, чтобы ссылка на него находилась в нашем каталоге, свяжитесь с нами, и мы незамедлительно удалим ее. Файлы для обмена на трекере предоставлены пользователями сайта, и администрация не несет ответственности за их содержание. Просьба не заливать файлы, защищенные авторскими правами, а также файлы нелегального содержания!

Искали программы, игры, дополнения, музыка mp3, аниме, аудио книги, журналы? Добро пожаловать на свободный торрент трекер Torrents, у нас можно скачать бесплатно, без смс и регистрации и прочих ограничений лучшие, отборные сборки программ, игр. Скачать торрентом не составит труда даже не опытному пользователю. Раздачи ежедневно обновляются, только лучшие и качественные раздачи, подробные описания и скриншоты. Огромная коллекция программ для работы со звуком, графикой, дизайном, а так же множество плагинов и инструментов к ним с подробной инструкцией и рекомендациями. Прошивки для навигаторов, карты. Разнообразные игры, для Windows, Linux. В коллекцие есть и старые игры любых жанров, Rpg, Action, Shooter, strategy Множество дополнений, модификаций, сценариев для популярных игр в жанре экш, рпг, гонки, стратегии, логические игры. Множество аддонов и сценариев для Microsoft Flight Simulator Большая коллекция книг, учебников. Если нет возможности купить печатное издание - смело скачивайте цифровую версию книги или, быть может, журнала. Не любите читать - можно загрузить бесплатно аудикнигу. Для веб дизайнеров и программистов так же найдется множество специализированного софта, таких как: редакторы с подсветкой, среды программирования, компоненты, системы управления базами данных, разнообразные скрипты и шаблоны. Не так давно у нас появился материал для автолюбителей и владельцев мото - оригинальные и неоригинальные каталоги запчастей, книги и журналы по ремонту и обслуживанию, видеоуроки, статьи по чип тюнингу, прошивкам. Процедура получения контента элементарная, достаточно просто скачать торрент файл и добавить его в загрузку в вашем торрент клиенте. Если у вас нет специального торрент клиента, вы можете его скачать у нас.

한국어 | [Read More] | Stivali da donna