Исчезнувшая Банни Лейк / Bunny Lake Is Missing (Отто Преминджер / Otto Preminger) [1965, Великобритания, триллер, детектив, BDRip 720p] 2x MVO + Sub Eng + Original Eng 

Цитировать
Исчезнувшая Банни Лейк / Bunny Lake Is Missing
Страна: Великобритания
Студия: Wheel Productions Ltd.
Жанр: триллер, детектив
Год выпуска: 1965
Продолжительность: 01:47:11--Перевод 1: Профессиональный (многоголосый закадровый)
Перевод 2: Профессиональный (многоголосый закадровый)
Субтитры: английские
Оригинальная аудио дорожка: английская--Режиссер: Отто Преминджер / Otto Preminger--В ролях: Лоуренс Оливье, Кэрол Линли, Кейр Дуллеа, Мартита Хант, Анна Мэсси, Клайв Ревилл, Финлэй Карри. Люси Маннхайм, Ноэл Коуард, Эдриенн Корри, Мегс Дженкинс, Кика Маркам, Дамарис Хейман--Описание: Недавно переехавшая в новую квартиру Энн Лейк в первый раз собирает свою дочь Банни в новую школу. У нее нет мужа, а живет она вместе со своим братом, журналистом Стивеном. После обеда Энн отправляется в школу, чтобы забрать Банни. Но та не появляется. На расспросы обеспокоенной Энн выясняется, что в суматохе дня ее никто не заметил. Девочка просто пропала…--Доп. информация: Сохранены оригинальные чаптеры как на Blu-ray.--Сэмпл: http://sendfile.su/1340109--Тип релиза: BDRip 720p
Контейнер: MKV
Видео кодек: H.264
Аудио кодек: DTS, AC-3
Видео: MPEG4/ISO/AVC, 2.35:1, 23.976 (24000/1001) FPS, 1280x544p, 8370 kb/s
Аудио 1: RUS / MVO, AC-3, 48.0 kHz, 2.0, 192 kb/s | Многоголосый закадровый, Первый канал
Аудио 2: RUS / MVO, AC-3, 48.0 kHz, 2.0, 192 kb/s | Многоголосый закадровый, ТРК "Петербург - 5 канал
Аудио 3: ENG / нет , DTS, 48.0 kHz, 1.0, 768 kb/s | оригинал
Формат субтитров: softsub (SRT)
Релиз:

MediaInfo

x264 [info]: profile High, level 4.1
x264 [info]: frame I:761 Avg QP:15.51 size:120656
x264 [info]: frame P:29293 Avg QP:16.93 size: 76972
x264 [info]: frame B:124146 Avg QP:19.10 size: 36532
x264 [info]: consecutive B-frames: 0.7% 0.9% 4.0% 13.5% 14.3% 56.7% 6.1% 1.5% 2.2%
x264 [info]: ref B L0: 71.8% 10.4% 5.5% 3.2% 2.3% 2.0% 1.7% 1.2% 1.0% 0.7% 0.3%
x264 [info]: kb/s:8560.25
Формат : Matroska
Версия формата : Version 2
Размер файла : 7,27 Гбайт
Продолжительность : 1 ч. 47 м.
Общий поток : 9716 Кбит/сек
Название фильма : Bunny Lake Is Missing - Rip from Rutracker
Дата кодирования : UTC 2017-06-07 14:24:12
Программа кодирования : mkvmerge v7.6.0 ('Garden of Dreams') 32bit built on Feb 11 2015 00:18:47
Библиотека кодирования : libebml v1.3.1 + libmatroska v1.4.2
Обложка : Yes
Attachments : cover.jpg
Видео
Идентификатор : 1
Формат : AVC
Формат/Информация : Advanced Video Codec
Профиль формата : High@L4.1
Параметр CABAC формата : Да
Параметр ReFrames формата : 12 кадров
Идентификатор кодека : V_MPEG4/ISO/AVC
Продолжительность : 1 ч. 47 м.
Битрейт : 8370 Кбит/сек
Ширина : 1280 пикселей
Высота : 544 пикселя
Соотношение сторон : 2,35:1
Режим частоты кадров : Постоянный
Частота кадров : 23,976 (24000/1001) кадра/сек
Цветовое пространство : YUV
Субдискретизация насыщенности : 4:2:0
Битовая глубина : 8 бит
Тип развёртки : Прогрессивная
Бит/(Пиксели*Кадры) : 0.501
Размер потока : 6,27 Гбайт (86%)
Заголовок : Bunny Lake Is Missing - Rip from Rutracker
Библиотека кодирования : x264 core 150 r2833 df79067
Настройки программы : cabac=1 / ref=12 / deblock=1:-3:-3 / analyse=0x3:0x113 / me=umh / subme=10 / psy=1 / psy_rd=0.85:0.00 / mixed_ref=1 / me_range=24 / chroma_me=1 / trellis=2 / 8x8dct=1 / cqm=0 / deadzone=21,11 / fast_pskip=1 / chroma_qp_offset=-2 / threads=6 / lookahead_threads=1 / sliced_threads=0 / nr=0 / decimate=0 / interlaced=0 / bluray_compat=0 / constrained_intra=0 / bframes=8 / b_pyramid=2 / b_adapt=2 / b_bias=0 / direct=1 / weightb=1 / open_gop=0 / weightp=2 / keyint=250 / keyint_min=23 / scenecut=40 / intra_refresh=0 / rc_lookahead=60 / rc=crf / mbtree=0 / crf=15.8 / qcomp=0.67 / qpmin=0 / qpmax=69 / qpstep=4 / vbv_maxrate=62500 / vbv_bufsize=78125 / crf_max=0.0 / nal_hrd=none / filler=0 / ip_ratio=1.40 / pb_ratio=1.30 / aq=2:0.74
Default : Да
Forced : Нет
Statistics Tags Issue : mkvmerge v12.0.0 ('Trust / Lust') 64bit 2017-06-07 11:51:27 / mkvmerge v7.6.0 ('Garden of Dreams') 32bit built on Feb 11 2015 00:18:47 2017-06-07 14:24:12
FromStats_BitRate : 8560247
FromStats_Duration : 01:47:11.425000000
FromStats_FrameCount : 154200
FromStats_StreamSize : 6881823949
Аудио #1
Идентификатор : 2
Формат : AC-3
Формат/Информация : Audio Coding 3
Параметр Endianness формата : Big
Идентификатор кодека : A_AC3
Продолжительность : 1 ч. 47 м.
Вид битрейта : Постоянный
Битрейт : 192 Кбит/сек
Каналы : 2 канала
Расположение каналов : Front: L R
Частота : 48,0 КГц
Частота кадров : 31,250 кадров/сек (1536 spf)
Битовая глубина : 16 бит
Метод сжатия : С потерями
Размер потока : 147 Мбайт (2%)
Заголовок : закадровый, первый канал
Язык : Russian
ServiceKind/String : Complete Main
Default : Да
Forced : Нет
Аудио #2
Идентификатор : 3
Формат : AC-3
Формат/Информация : Audio Coding 3
Параметр Endianness формата : Big
Идентификатор кодека : A_AC3
Продолжительность : 1 ч. 47 м.
Вид битрейта : Постоянный
Битрейт : 192 Кбит/сек
Каналы : 2 канала
Расположение каналов : Front: L R
Частота : 48,0 КГц
Частота кадров : 31,250 кадров/сек (1536 spf)
Битовая глубина : 16 бит
Метод сжатия : С потерями
Размер потока : 147 Мбайт (2%)
Заголовок : закадровый, ТРК Петербург 5-й канал
Язык : Russian
ServiceKind/String : Complete Main
Default : Нет
Forced : Нет
Аудио #3
Идентификатор : 4
Формат : DTS
Формат/Информация : Digital Theater Systems
Режим : 16
Параметр Endianness формата : Big
Идентификатор кодека : A_DTS
Продолжительность : 1 ч. 47 м.
Вид битрейта : Постоянный
Битрейт : 768 Кбит/сек
Каналы : 1 канал
Расположение каналов : Front: C
Частота : 48,0 КГц
Частота кадров : 93,750 кадра/сек (512 spf)
Битовая глубина : 24 бит
Метод сжатия : С потерями
Размер потока : 589 Мбайт (8%)
Заголовок : оригинал
Язык : English
Default : Нет
Forced : Нет
Текст
Идентификатор : 5
Формат : UTF-8
Идентификатор кодека : S_TEXT/UTF8
Идентификатор кодека/Информация : UTF-8 Plain Text
Заголовок : английские
Язык : English
Default : Нет
Forced : Нет
Меню
00:00:00.000 : en:00:00:00.000
00:09:03.960 : en:00:09:03.960
00:19:03.726 : en:00:19:03.726
00:28:04.766 : en:00:28:04.766
00:36:01.743 : en:00:36:01.743
00:45:33.814 : en:00:45:33.814
00:53:10.646 : en:00:53:10.646
01:03:02.362 : en:01:03:02.362
01:12:22.004 : en:01:12:22.004
01:19:39.650 : en:01:19:39.650
01:28:57.874 : en:01:28:57.874
01:40:36.948 : en:01:40:36.948

Скриншоты

Сравнение с исходником

http://screenshotcomparison.com/comparison/212049/picture:0
Вы не можете начинать темы
Вы не можете отвечать на сообщения
Вы не можете редактировать свои сообщения
Вы не можете удалять свои сообщения
Вы не можете голосовать в опросах
Вы не можете прикреплять файлы к сообщениям
Вы можете скачивать файлы
!ВНИМАНИЕ!

Сайт не предоставляет электронные версии произведений, а занимается лишь коллекционированием и каталогизацией ссылок, присылаемых и публикуемых на форуме нашими читателями. Если вы являетесь правообладателем какого-либо представленного материала и не желаете, чтобы ссылка на него находилась в нашем каталоге, свяжитесь с нами, и мы незамедлительно удалим ее. Файлы для обмена на трекере предоставлены пользователями сайта, и администрация не несет ответственности за их содержание. Просьба не заливать файлы, защищенные авторскими правами, а также файлы нелегального содержания!

Искали программы, игры, дополнения, музыка mp3, аниме, аудио книги, журналы? Добро пожаловать на свободный торрент трекер Torrents, у нас можно скачать бесплатно, без смс и регистрации и прочих ограничений лучшие, отборные сборки программ, игр. Скачать торрентом не составит труда даже не опытному пользователю. Раздачи ежедневно обновляются, только лучшие и качественные раздачи, подробные описания и скриншоты. Огромная коллекция программ для работы со звуком, графикой, дизайном, а так же множество плагинов и инструментов к ним с подробной инструкцией и рекомендациями. Прошивки для навигаторов, карты. Разнообразные игры, для Windows, Linux. В коллекцие есть и старые игры любых жанров, Rpg, Action, Shooter, strategy Множество дополнений, модификаций, сценариев для популярных игр в жанре экш, рпг, гонки, стратегии, логические игры. Множество аддонов и сценариев для Microsoft Flight Simulator Большая коллекция книг, учебников. Если нет возможности купить печатное издание - смело скачивайте цифровую версию книги или, быть может, журнала. Не любите читать - можно загрузить бесплатно аудикнигу. Для веб дизайнеров и программистов так же найдется множество специализированного софта, таких как: редакторы с подсветкой, среды программирования, компоненты, системы управления базами данных, разнообразные скрипты и шаблоны. Не так давно у нас появился материал для автолюбителей и владельцев мото - оригинальные и неоригинальные каталоги запчастей, книги и журналы по ремонту и обслуживанию, видеоуроки, статьи по чип тюнингу, прошивкам. Процедура получения контента элементарная, достаточно просто скачать торрент файл и добавить его в загрузку в вашем торрент клиенте. Если у вас нет специального торрент клиента, вы можете его скачать у нас.

DOWNLOAD | Wakeboard, Boot, Einkaufswagen. Die Winch zieht alles! | Kliemannsland | Lettore MP3