Голова / Head (Боб Рейфелсон / Bob Rafelson) [1968, США, мюзикл, фэнтези, комедия, BDRemux 1080p] [Criterion Collection] VO (О. Воротилин) + Sub Rus, Eng + Original Eng 

Цитировать
Голова / HeadCriterion Collection Страна: США
Студия: Raybert Productions
Жанр: мюзикл, фэнтези, комедия
Год выпуска: 1968
Продолжительность: 01:25:46
Перевод: Одноголосый закадровый Олег Воротилин
Субтитры: русские Serveladkin, английские SDH
Оригинальная аудиодорожка: английский
Режиссер: Боб Рейфелсон / Bob Rafelson
В ролях: Мики Доленц, Майкл Несмит, Виктор Мэтьюр, Аннетт Фаничелло, Тимоти Кэри, Логан Рэмси, Абрахам Соуфер, Вито Скотти, Чарльз Макколей, Чарльз Ирвинг, Перси Хелтон, Сонни Листон, Рэй Ничке, Кэрол Дода, Фрэнк Заппа, Джун Фэйрчайлд, Тери Гарр и др.
Описание: Киноэссе популярной в шестидесятые американской рок-группы The Monkees на такие «жизненно важные» темы, как отношения с девушками, коммерциализация музыки, кинопроизводство и Вьетнам.
-
Сэмпл IMDB Кинопоиск
-
Доп. информация:
Спонсоры озвучки - dmyan, porvaliparus
Тип релиза: BDRemux 1080p (Head 1968 Criterion Collection Blu-ray 1080p AVC DTS-HD MA 5.1)
Контейнер: MKV
Видео: AVC / 1920x1080 / 16:9 / 23.976 fps / 35004 Kbps / High@L4.1
Аудио 1 Rus: DTS-HD MA / 48.0 KHz / 5.1 / 3840 kbps / 24 bit (DTS Core 48.0 KHz / 5.1 / 1509 kbps / 24 bit) VO / О. Воротилин
Аудио 2 Eng: DTS-HD MA / 48.0 KHz / 5.1 / 3829 kbps / 24 bit (DTS Core 48.0 KHz / 5.1 / 1509 kbps / 24 bit) Eng
Аудио 3 Eng: AC3 / 48.0 KHz / 2.0 / 192 kbps / Commentary
Формат субтитров: softsub (SRT)

MediaInfo

Общее
Уникальный идентификатор : 251352359679708868771870159071649109585 (0xBD18B41FC82E8460A49987B510669651)
Полное имя : E:\porvaliparus\Head.1968.BDRemux.1080p.mkv
Формат : Matroska
Версия формата : Version 4 / Version 2
Размер файла : 25,7 Гбайт
Продолжительность : 1 ч. 25 м.
Режим общего битрейта : Переменный
Общий поток : 42,9 Мбит/сек
Название фильма : Head.1968.BDRemux.1080p-porvaliparus
Дата кодирования : UTC 2017-06-21 06:14:10
Программа кодирования : mkvmerge v11.0.0 ('Alive') 64bit
Библиотека кодирования : libebml v1.3.4 + libmatroska v1.4.5
Видео
Идентификатор : 1
Формат : AVC
Формат/Информация : Advanced Video Codec
Профиль формата : High@L4.1
Параметр CABAC формата : Да
Параметр ReFrames формата : 4 кадра
Идентификатор кодека : V_MPEG4/ISO/AVC
Продолжительность : 1 ч. 25 м.
Вид битрейта : Переменный
Битрейт : 35,0 Мбит/сек
Максимальный битрейт : 37,0 Мбит/сек
Ширина : 1920 пикселей
Высота : 1080 пикселей
Соотношение сторон : 16:9
Режим частоты кадров : Постоянный
Частота кадров : 23,976 (24000/1001) кадра/сек
Цветовое пространство : YUV
Субдискретизация насыщенности : 4:2:0
Битовая глубина : 8 бит
Тип развёртки : Прогрессивная
Бит/(Пиксели*Кадры) : 0.704
Размер потока : 21,0 Гбайт (82%)
Заголовок : Head.1968.BDRemux.1080p
Default : Да
Forced : Нет
Цветовой диапазон : Limited
Основные цвета : BT.709
Характеристики трансфера : BT.709
Коэффициенты матрицы : BT.709
Аудио #1
Идентификатор : 2
Формат : DTS
Формат/Информация : Digital Theater Systems
Профиль формата : MA / Core
Режим : 16
Параметр Endianness формата : Big
Идентификатор кодека : A_DTS
Продолжительность : 1 ч. 25 м.
Вид битрейта : Переменный / Постоянный
Битрейт : 3840 Кбит/сек / 1509 Кбит/сек
Каналы : 6 каналов
Расположение каналов : Front: L C R, Side: L R, LFE
Частота : 48,0 КГц
Частота кадров : 93,750 кадра/сек (512 spf)
Битовая глубина : 24 бит
Метод сжатия : Без потерь / Lossy
Размер потока : 2,31 Гбайт (9%)
Заголовок : VO [О. Воротилин]
Язык : Russian
Default : Да
Forced : Нет
Аудио #2
Идентификатор : 3
Формат : DTS
Формат/Информация : Digital Theater Systems
Профиль формата : MA / Core
Режим : 16
Параметр Endianness формата : Big
Идентификатор кодека : A_DTS
Продолжительность : 1 ч. 25 м.
Вид битрейта : Переменный / Постоянный
Битрейт : 3840 Кбит/сек / 1509 Кбит/сек
Каналы : 6 каналов
Расположение каналов : Front: L C R, Side: L R, LFE
Частота : 48,0 КГц
Частота кадров : 93,750 кадра/сек (512 spf)
Битовая глубина : 24 бит
Метод сжатия : Без потерь / Lossy
Размер потока : 2,29 Гбайт (9%)
Язык : English
Default : Нет
Forced : Нет
Аудио #3
Идентификатор : 4
Формат : AC-3
Формат/Информация : Audio Coding 3
Параметр Endianness формата : Big
Идентификатор кодека : A_AC3
Продолжительность : 1 ч. 25 м.
Вид битрейта : Постоянный
Битрейт : 192 Кбит/сек
Каналы : 2 канала
Расположение каналов : Front: L R
Частота : 48,0 КГц
Частота кадров : 31,250 кадров/сек (1536 spf)
Битовая глубина : 16 бит
Метод сжатия : С потерями
Размер потока : 118 Мбайт (0%)
Заголовок : Commentary
Язык : English
ServiceKind/String : Complete Main
Default : Нет
Forced : Нет
Текст #1
Идентификатор : 5
Формат : UTF-8
Идентификатор кодека : S_TEXT/UTF8
Идентификатор кодека/Информация : UTF-8 Plain Text
Продолжительность : 1 ч. 23 м.
Битрейт : 65 бит/сек
ElementCount : 675
Размер потока : 39,9 Кбайт (0%)
Заголовок : Rus [Serveladkin]
Язык : Russian
Default : Нет
Forced : Нет
Текст #2
Идентификатор : 6
Формат : UTF-8
Идентификатор кодека : S_TEXT/UTF8
Идентификатор кодека/Информация : UTF-8 Plain Text
Продолжительность : 1 ч. 25 м.
Битрейт : 61 бит/сек
ElementCount : 1109
Размер потока : 38,5 Кбайт (0%)
Язык : English
Default : Нет
Forced : Нет
Меню
00:00:00.000 : en:00:00:00.000
00:03:25.414 : en:00:03:25.414
00:06:34.311 : en:00:06:34.311
00:08:38.351 : en:00:08:38.351
00:10:22.831 : en:00:10:22.831
00:13:32.395 : en:00:13:32.395
00:16:33.284 : en:00:16:33.284
00:17:43.396 : en:00:17:43.396
00:23:00.921 : en:00:23:00.921
00:26:08.984 : en:00:26:08.984
00:31:37.646 : en:00:31:37.646
00:36:07.290 : en:00:36:07.290
00:37:47.474 : en:00:37:47.474
00:41:30.988 : en:00:41:30.988
00:46:17.775 : en:00:46:17.775
00:49:09.029 : en:00:49:09.029
00:56:55.662 : en:00:56:55.662
01:00:56.403 : en:01:00:56.403
01:06:44.334 : en:01:06:44.334
01:10:59.255 : en:01:10:59.255
01:14:11.447 : en:01:14:11.447
01:18:29.747 : en:01:18:29.747
01:23:52.736 : en:01:23:52.736

Скриншоты


BDInfo исходника

DISC INFO:
Disc Title: Head 1968 Criterion Collection Blu-ray 1080p AVC DTS-HD MA 5.1
Disc Size: 46 554 969 649 bytes
Protection: AACS
BD-Java: Yes
BDInfo: 0.5.8
PLAYLIST REPORT:
Name: 00001.MPLS
Length: 1:25:46.182 (h:m:s.ms)
Size: 28 107 227 136 bytes
Total Bitrate: 43,69 Mbps
VIDEO:
Codec Bitrate Description
----- ------- -----------
MPEG-4 AVC Video 35004 kbps 1080p / 23,976 fps / 16:9 / High Profile 4.1
AUDIO:
Codec Language Bitrate Description
----- -------- ------- -----------
DTS-HD Master Audio English 3829 kbps 5.1 / 48 kHz / 3829 kbps / 24-bit (DTS Core: 5.1 / 48 kHz / 1509 kbps / 24-bit)
LPCM Audio English 1152 kbps 1.0 / 48 kHz / 1152 kbps / 24-bit
Dolby Digital Audio English 192 kbps 2.0 / 48 kHz / 192 kbps
SUBTITLES:
Codec Language Bitrate Description
----- -------- ------- -----------
Presentation Graphics English 44,547 kbps
Presentation Graphics Chinese 27,758 kbps
Presentation Graphics Chinese 46,929 kbps
Presentation Graphics Chinese 28,512 kbps

Дополнительная тех. информация

log x264

Source vs Encode

Вы не можете начинать темы
Вы не можете отвечать на сообщения
Вы не можете редактировать свои сообщения
Вы не можете удалять свои сообщения
Вы не можете голосовать в опросах
Вы не можете прикреплять файлы к сообщениям
Вы можете скачивать файлы
!ВНИМАНИЕ!

Сайт не предоставляет электронные версии произведений, а занимается лишь коллекционированием и каталогизацией ссылок, присылаемых и публикуемых на форуме нашими читателями. Если вы являетесь правообладателем какого-либо представленного материала и не желаете, чтобы ссылка на него находилась в нашем каталоге, свяжитесь с нами, и мы незамедлительно удалим ее. Файлы для обмена на трекере предоставлены пользователями сайта, и администрация не несет ответственности за их содержание. Просьба не заливать файлы, защищенные авторскими правами, а также файлы нелегального содержания!

Искали программы, игры, дополнения, музыка mp3, аниме, аудио книги, журналы? Добро пожаловать на свободный торрент трекер Torrents, у нас можно скачать бесплатно, без смс и регистрации и прочих ограничений лучшие, отборные сборки программ, игр. Скачать торрентом не составит труда даже не опытному пользователю. Раздачи ежедневно обновляются, только лучшие и качественные раздачи, подробные описания и скриншоты. Огромная коллекция программ для работы со звуком, графикой, дизайном, а так же множество плагинов и инструментов к ним с подробной инструкцией и рекомендациями. Прошивки для навигаторов, карты. Разнообразные игры, для Windows, Linux. В коллекцие есть и старые игры любых жанров, Rpg, Action, Shooter, strategy Множество дополнений, модификаций, сценариев для популярных игр в жанре экш, рпг, гонки, стратегии, логические игры. Множество аддонов и сценариев для Microsoft Flight Simulator Большая коллекция книг, учебников. Если нет возможности купить печатное издание - смело скачивайте цифровую версию книги или, быть может, журнала. Не любите читать - можно загрузить бесплатно аудикнигу. Для веб дизайнеров и программистов так же найдется множество специализированного софта, таких как: редакторы с подсветкой, среды программирования, компоненты, системы управления базами данных, разнообразные скрипты и шаблоны. Не так давно у нас появился материал для автолюбителей и владельцев мото - оригинальные и неоригинальные каталоги запчастей, книги и журналы по ремонту и обслуживанию, видеоуроки, статьи по чип тюнингу, прошивкам. Процедура получения контента элементарная, достаточно просто скачать торрент файл и добавить его в загрузку в вашем торрент клиенте. Если у вас нет специального торрент клиента, вы можете его скачать у нас.

EUR 4,99 | Internal and External Business Environement | Dead End Express