Голова / Head (Боб Рейфелсон / Bob Rafelson) [1968, США, мюзикл, фэнтези, комедия, BDRip 720p] [Criterion Collection] VO (О. Воротилин) + Sub Rus, Eng + Original Eng 

Цитировать
Голова / HeadCriterion Collection Страна: США
Студия: Raybert Productions
Жанр: мюзикл, фэнтези, комедия
Год выпуска: 1968
Продолжительность: 01:25:46
Перевод: Одноголосый закадровый Олег Воротилин
Субтитры: русские Serveladkin, английские SDH
Оригинальная аудиодорожка: английский
Режиссер: Боб Рейфелсон / Bob Rafelson
В ролях: Мики Доленц, Майкл Несмит, Виктор Мэтьюр, Аннетт Фаничелло, Тимоти Кэри, Логан Рэмси, Абрахам Соуфер, Вито Скотти, Чарльз Макколей, Чарльз Ирвинг, Перси Хелтон, Сонни Листон, Рэй Ничке, Кэрол Дода, Фрэнк Заппа, Джун Фэйрчайлд, Тери Гарр и др.
Описание: Киноэссе популярной в шестидесятые американской рок-группы The Monkees на такие «жизненно важные» темы, как отношения с девушками, коммерциализация музыки, кинопроизводство и Вьетнам.
-
Сэмпл IMDB Кинопоиск
-
Доп. информация:
Спонсоры озвучки - dmyan, porvaliparus
Тип релиза: BDRip 720p
Контейнер: MKV
Видео: AVC / 1278x720 / 16:9 / 23.976 fps / 15000 Kbps / High@L4.1
Аудио 1 Rus: DTS / 48.0 KHz / 5.1 / 1509 kbps / 24 bit / VO / О. Воротилин
Аудио 2 Rus: DTS / 48.0 KHz / 5.1 / 1509 kbps / 24 bit / Eng
Аудио 3 Eng: AC3 / 48.0 KHz / 2.0 / 192 kbps / Commentary
Формат субтитров: softsub (SRT)

MediaInfo

Общее
Уникальный идентификатор : 253647395556083553496249625728678194774 (0xBED2B6210B914DB28D388CA321096E56)
Полное имя : E:\porvaliparus\Head.1968.BDRip.720p.mkv
Формат : Matroska
Версия формата : Version 4 / Version 2
Размер файла : 10,9 Гбайт
Продолжительность : 1 ч. 25 м.
Общий поток : 18,2 Мбит/сек
Название фильма : Head.1968.BDRip.720p-porvaliparus
Дата кодирования : UTC 2017-06-21 07:40:23
Программа кодирования : mkvmerge v11.0.0 ('Alive') 64bit
Библиотека кодирования : libebml v1.3.4 + libmatroska v1.4.5
Видео
Идентификатор : 1
Формат : AVC
Формат/Информация : Advanced Video Codec
Профиль формата : High@L4.1
Параметр CABAC формата : Да
Параметр ReFrames формата : 9 кадров
Идентификатор кодека : V_MPEG4/ISO/AVC
Продолжительность : 1 ч. 25 м.
Битрейт : 15,0 Мбит/сек
Ширина : 1278 пикселей
Высота : 720 пикселей
Соотношение сторон : 16:9
Режим частоты кадров : Постоянный
Частота кадров : 23,976 (24000/1001) кадра/сек
Цветовое пространство : YUV
Субдискретизация насыщенности : 4:2:0
Битовая глубина : 8 бит
Тип развёртки : Прогрессивная
Бит/(Пиксели*Кадры) : 0.680
Размер потока : 8,99 Гбайт (82%)
Заголовок : Head.1968.BDRip.720p
Библиотека кодирования : x264 core 150 r2833 df79067
Настройки программы : cabac=1 / ref=9 / deblock=1:-3:-3 / analyse=0x3:0x133 / me=umh / subme=11 / psy=1 / psy_rd=1.00:0.10 / mixed_ref=1 / me_range=32 / chroma_me=1 / trellis=2 / 8x8dct=1 / cqm=0 / deadzone=21,11 / fast_pskip=0 / chroma_qp_offset=-3 / threads=12 / lookahead_threads=3 / sliced_threads=0 / nr=0 / decimate=1 / interlaced=0 / bluray_compat=0 / constrained_intra=0 / bframes=10 / b_pyramid=2 / b_adapt=2 / b_bias=0 / direct=3 / weightb=1 / open_gop=0 / weightp=2 / keyint=250 / keyint_min=23 / scenecut=40 / intra_refresh=0 / rc_lookahead=40 / rc=2pass / mbtree=0 / bitrate=15000 / ratetol=1.0 / qcomp=0.60 / qpmin=0 / qpmax=69 / qpstep=4 / cplxblur=20.0 / qblur=0.5 / vbv_maxrate=50000 / vbv_bufsize=62500 / nal_hrd=none / filler=0 / ip_ratio=1.40 / pb_ratio=1.30 / aq=1:0.80
Default : Да
Forced : Нет
Аудио #1
Идентификатор : 2
Формат : DTS
Формат/Информация : Digital Theater Systems
Режим : 16
Параметр Endianness формата : Big
Идентификатор кодека : A_DTS
Продолжительность : 1 ч. 25 м.
Вид битрейта : Постоянный
Битрейт : 1509 Кбит/сек
Каналы : 6 каналов
Расположение каналов : Front: L C R, Side: L R, LFE
Частота : 48,0 КГц
Частота кадров : 93,750 кадра/сек (512 spf)
Битовая глубина : 24 бит
Метод сжатия : С потерями
Размер потока : 926 Мбайт (8%)
Заголовок : VO [О. Воротилин]
Язык : Russian
Default : Да
Forced : Нет
Аудио #2
Идентификатор : 3
Формат : DTS
Формат/Информация : Digital Theater Systems
Режим : 16
Параметр Endianness формата : Big
Идентификатор кодека : A_DTS
Продолжительность : 1 ч. 25 м.
Вид битрейта : Постоянный
Битрейт : 1509 Кбит/сек
Каналы : 6 каналов
Расположение каналов : Front: L C R, Side: L R, LFE
Частота : 48,0 КГц
Частота кадров : 93,750 кадра/сек (512 spf)
Битовая глубина : 24 бит
Метод сжатия : С потерями
Размер потока : 926 Мбайт (8%)
Язык : English
Default : Нет
Forced : Нет
Аудио #3
Идентификатор : 4
Формат : AC-3
Формат/Информация : Audio Coding 3
Параметр Endianness формата : Big
Идентификатор кодека : A_AC3
Продолжительность : 1 ч. 25 м.
Вид битрейта : Постоянный
Битрейт : 192 Кбит/сек
Каналы : 2 канала
Расположение каналов : Front: L R
Частота : 48,0 КГц
Частота кадров : 31,250 кадров/сек (1536 spf)
Битовая глубина : 16 бит
Метод сжатия : С потерями
Размер потока : 118 Мбайт (1%)
Заголовок : Commentary
Язык : English
ServiceKind/String : Complete Main
Default : Нет
Forced : Нет
Текст #1
Идентификатор : 5
Формат : UTF-8
Идентификатор кодека : S_TEXT/UTF8
Идентификатор кодека/Информация : UTF-8 Plain Text
Продолжительность : 1 ч. 23 м.
Битрейт : 65 бит/сек
ElementCount : 675
Размер потока : 39,9 Кбайт (0%)
Заголовок : Rus [Serveladkin]
Язык : Russian
Default : Нет
Forced : Нет
Текст #2
Идентификатор : 6
Формат : UTF-8
Идентификатор кодека : S_TEXT/UTF8
Идентификатор кодека/Информация : UTF-8 Plain Text
Продолжительность : 1 ч. 25 м.
Битрейт : 61 бит/сек
ElementCount : 1109
Размер потока : 38,5 Кбайт (0%)
Язык : English
Default : Нет
Forced : Нет
Меню
00:00:00.000 : en:00:00:00.000
00:03:25.414 : en:00:03:25.414
00:06:34.311 : en:00:06:34.311
00:08:38.351 : en:00:08:38.351
00:10:22.831 : en:00:10:22.831
00:13:32.395 : en:00:13:32.395
00:16:33.284 : en:00:16:33.284
00:17:43.396 : en:00:17:43.396
00:23:00.921 : en:00:23:00.921
00:26:08.984 : en:00:26:08.984
00:31:37.646 : en:00:31:37.646
00:36:07.290 : en:00:36:07.290
00:37:47.474 : en:00:37:47.474
00:41:30.988 : en:00:41:30.988
00:46:17.775 : en:00:46:17.775
00:49:09.029 : en:00:49:09.029
00:56:55.662 : en:00:56:55.662
01:00:56.403 : en:01:00:56.403
01:06:44.334 : en:01:06:44.334
01:10:59.255 : en:01:10:59.255
01:14:11.447 : en:01:14:11.447
01:18:29.747 : en:01:18:29.747
01:23:52.736 : en:01:23:52.736

Скриншоты


Дополнительная тех. информация

log x264

x264 [info]: using SAR=1/1
x264 [info]: using cpu capabilities: MMX2 SSE2Fast SSSE3 SSE4.2 AVX
x264 [info]: profile High, level 4.1
x264 [info]: frame I:735 Avg QP:16.23 size:158095
x264 [info]: frame P:29222 Avg QP:18.01 size:103883
x264 [info]: frame B:93427 Avg QP:19.98 size: 69527
x264 [info]: consecutive B-frames: 3.6% 4.3% 10.7% 17.4% 11.8% 42.8% 3.1% 1.5% 1.7% 1.6% 1.5%
x264 [info]: mb I I16..4: 5.8% 83.9% 10.3%
x264 [info]: mb P I16..4: 0.4% 65.9% 2.5% P16..4: 9.8% 13.0% 6.2% 0.7% 0.0% skip: 1.3%
x264 [info]: mb B I16..4: 0.1% 26.3% 0.3% B16..8: 27.7% 23.1% 6.9% direct:11.3% skip: 4.2% L0:46.4% L1:34.3% BI:19.3%
x264 [info]: 8x8 transform intra:97.2% inter:63.2%
x264 [info]: direct mvs spatial:96.5% temporal:3.5%
x264 [info]: coded y,uvDC,uvAC intra: 99.1% 86.9% 65.6% inter: 80.7% 52.1% 7.1%
x264 [info]: i16 v,h,dc,p: 47% 8% 18% 27%
x264 [info]: i8 v,h,dc,ddl,ddr,vr,hd,vl,hu: 9% 7% 14% 10% 13% 12% 11% 12% 13%
x264 [info]: i4 v,h,dc,ddl,ddr,vr,hd,vl,hu: 8% 6% 6% 10% 16% 15% 13% 13% 13%
x264 [info]: i8c dc,h,v,p: 43% 25% 17% 15%
x264 [info]: Weighted P-Frames: Y:8.2% UV:4.3%
x264 [info]: ref P L0: 36.3% 11.7% 18.4% 9.2% 7.5% 5.4% 4.9% 3.1% 3.1% 0.4% 0.0%
x264 [info]: ref B L0: 64.2% 14.3% 8.2% 4.7% 3.6% 2.9% 1.7% 0.4%
x264 [info]: ref B L1: 92.1% 7.9%
x264 [info]: kb/s:14997.81
x264 [total]: encoded 123384 frames, 5.55 fps, 14997.81 kb/s

Source vs Encode


Вы не можете начинать темы
Вы не можете отвечать на сообщения
Вы не можете редактировать свои сообщения
Вы не можете удалять свои сообщения
Вы не можете голосовать в опросах
Вы не можете прикреплять файлы к сообщениям
Вы можете скачивать файлы
!ВНИМАНИЕ!

Сайт не предоставляет электронные версии произведений, а занимается лишь коллекционированием и каталогизацией ссылок, присылаемых и публикуемых на форуме нашими читателями. Если вы являетесь правообладателем какого-либо представленного материала и не желаете, чтобы ссылка на него находилась в нашем каталоге, свяжитесь с нами, и мы незамедлительно удалим ее. Файлы для обмена на трекере предоставлены пользователями сайта, и администрация не несет ответственности за их содержание. Просьба не заливать файлы, защищенные авторскими правами, а также файлы нелегального содержания!

Искали программы, игры, дополнения, музыка mp3, аниме, аудио книги, журналы? Добро пожаловать на свободный торрент трекер Torrents, у нас можно скачать бесплатно, без смс и регистрации и прочих ограничений лучшие, отборные сборки программ, игр. Скачать торрентом не составит труда даже не опытному пользователю. Раздачи ежедневно обновляются, только лучшие и качественные раздачи, подробные описания и скриншоты. Огромная коллекция программ для работы со звуком, графикой, дизайном, а так же множество плагинов и инструментов к ним с подробной инструкцией и рекомендациями. Прошивки для навигаторов, карты. Разнообразные игры, для Windows, Linux. В коллекцие есть и старые игры любых жанров, Rpg, Action, Shooter, strategy Множество дополнений, модификаций, сценариев для популярных игр в жанре экш, рпг, гонки, стратегии, логические игры. Множество аддонов и сценариев для Microsoft Flight Simulator Большая коллекция книг, учебников. Если нет возможности купить печатное издание - смело скачивайте цифровую версию книги или, быть может, журнала. Не любите читать - можно загрузить бесплатно аудикнигу. Для веб дизайнеров и программистов так же найдется множество специализированного софта, таких как: редакторы с подсветкой, среды программирования, компоненты, системы управления базами данных, разнообразные скрипты и шаблоны. Не так давно у нас появился материал для автолюбителей и владельцев мото - оригинальные и неоригинальные каталоги запчастей, книги и журналы по ремонту и обслуживанию, видеоуроки, статьи по чип тюнингу, прошивкам. Процедура получения контента элементарная, достаточно просто скачать торрент файл и добавить его в загрузку в вашем торрент клиенте. Если у вас нет специального торрент клиента, вы можете его скачать у нас.

Humans S03E04 720p HEVC x265-MeGusta 59 minutes | Proiettori | 14 Comment