Великолепная Долли / Magnificent Doll (Фрэнк Борзеги (Борзедж) / Frank Borzage) [1946, США, историческая драма, BDRip 720p] VO (Алексей Яковлев) + Original Eng 

Цитировать
Великолепная Долли / Magnificent Doll
Страна: США
Студия: Hallmark Productions
Жанр: историческая драма
Год выпуска: 1946
Продолжительность: 01:35:08
Перевод: Одноголосый закадровый - Алексей Яковлев
Субтитры: нет
Оригинальная аудиодорожка: английский
Режиссер: Фрэнк Борзеги (Борзедж) / Frank Borzage
Композитор: Ханс Й. Зальтер / Hans J. Salter
В ролях: Джинджер Роджерс / Ginger Rogers ... Dolly Payne Madison
Дэвид Нивен / David Niven ... Aaron Burr
Бёрджесс Мередит / Burgess Meredith ... James Madison
Пегги Вуд / Peggy Wood ... Mrs. Payne
Стефен МакНалли / Stephen McNally (в титрах: Horace McNally) ... John Todd
Роберт Бэррат / Robert Barrat ... Mr. Payne
Грэндон Родс / Grandon Rhodes ... Thomas Jefferson
Фрэнсис Э. Уильямс / Frances E. Williams (в титрах: Frances Williams) ... Amy
Генри Летондаль / Henri Letondal ... Count D'Arignon
Джозеф Форте / Joseph Forte (в титрах: Joe Forte) ... Senator Ainsworth
Эрвилль Алдерсон / Erville Alderson ... Darcy, в титрах не указан
Сэм Эш / Sam Ash ... Minor Role, в титрах не указан

Описание: Экранизация новеллы Ирвинга Стоуна.
Конец XVIII века. Вдова Долли Пейн Тодд и ее мать, ведущие затворнический образ жизни в Филадельфии, вынуждены сдавать комнаты, чтобы поправить свое финансовое положение. Скоро в их доме начали появляться многие политические деятели того времени, среди которых сенатор из Нью-Йорка Аарон Берр и конгрессмен из Вирджинии Джеймс Мэдисон. Будучи друзьями, Берр и Мэдисон являются яростными политическими оппонентами. Скоро к политическим противоречиям добавляется и соперничество за благосклонность Долли. Выбрав в конце концов Мэдисона, Долли не только становится заметной фигурой в вашингтонском обществе, но и оказывает значительное влияние на политическую жизнь молодого американского государства.

Интересные факты

- В ночь перед началом съёмок фильма во время вечеринки в доме Тайрона Пауэла была проведена игра в прятки. Примула Нивен (жена Давида Нивена) открыла дверь, которая, как она думала, ведёт в шкаф и упала с лестницы, в результате чего погибла.
- В заключительной сцене, где Долли произносит свою большую речь, Джинджер Роджерс не понравился текст, написанный сценаристами. Она чувствовала, что тексту недостает той целостности, которая всегда была присуща Долли. За ночь до съёмок Джинджер Роджерс написала собственный текст, который и был использован в фильме.
--Фильмография Джинджер Роджерс--Фильмография Дэвида Нивена-- --БОЛЬШОЕ СПАСИБО:
Исходный BDRip 720p - daphlunk (KG)
Работа со звуком - AlekceyR76
Перевод и озвучивание фильма - Алексей Яковлев
Также Большое Спасибо всем, кто принял участие в появлении перевода и озвучки к этому фильму:
Магда, Lafajet, jasenka, елена 22, yanaelisa, Ugo927, voostorg, HippopotamusIV, cementit, борюська, leoder, Simpun, duum100, sapog1960, old76
--Тип релиза: BDRip 720p
Контейнер: MKV
Видео: AVC, 960x720 (1.33:1), 6131 kbps, 23.976 fps
Аудио 1: Russian (Dolby AC3, 1 ch), 48 kHz, 448 Kbps - Алексей Яковлев
Аудио 2: English (Dolby AC3, 1 ch), 48 kHz, 448 Kbps

Доп. информация по релизу

К BDRip 720p добавлен русский одноголосый закадровый перевод, полученный наложением чистого голоса на оригинальный трек.

MediaInfo

Общее
Уникальный идентификатор : 223005807617042665346443825945450300173 (0xA7C55B3442DBFF2FA37724816972C30D)
Полное имя : R:\РАЗДАЧИ\РИПЫ\Magnificient Doll.1946.BDRip.720p.mkv
Формат : Matroska
Версия формата : Version 2
Размер файла : 4,67 Гбайт
Продолжительность : 1 ч. 35 м.
Общий поток : 7024 Кбит/сек
Дата кодирования : UTC 2017-06-13 16:48:31
Программа кодирования : mkvmerge v7.5.0 ('Glass Culture') 32bit built on Jan 4 2015 16:37:25
Библиотека кодирования : libebml v1.3.1 + libmatroska v1.4.2
Видео
Идентификатор : 1
Формат : AVC
Формат/Информация : Advanced Video Codec
Профиль формата : High@L4.1
Параметр CABAC формата : Да
Параметр ReFrames формата : 8 кадров
Идентификатор кодека : V_MPEG4/ISO/AVC
Продолжительность : 1 ч. 35 м.
Битрейт : 6131 Кбит/сек
Ширина : 960 пикселей
Высота : 720 пикселей
Соотношение сторон : 4:3
Режим частоты кадров : Постоянный
Частота кадров : 23,976 (24000/1001) кадра/сек
Цветовое пространство : YUV
Субдискретизация насыщенности : 4:2:0
Битовая глубина : 8 бит
Тип развёртки : Прогрессивная
Бит/(Пиксели*Кадры) : 0.370
Размер потока : 4,07 Гбайт (87%)
Библиотека кодирования : x264 core 148 r2638 7599210
Настройки программы : cabac=1 / ref=8 / deblock=1:-3:-3 / analyse=0x3:0x133 / me=umh / subme=9 / psy=1 / psy_rd=1.00:0.15 / mixed_ref=1 / me_range=28 / chroma_me=1 / trellis=2 / 8x8dct=1 / cqm=0 / deadzone=21,11 / fast_pskip=0 / chroma_qp_offset=-3 / threads=6 / lookahead_threads=1 / sliced_threads=0 / nr=0 / decimate=0 / interlaced=0 / bluray_compat=0 / constrained_intra=0 / bframes=10 / b_pyramid=2 / b_adapt=2 / b_bias=0 / direct=3 / weightb=1 / open_gop=0 / weightp=2 / keyint=240 / keyint_min=23 / scenecut=40 / intra_refresh=0 / rc_lookahead=60 / rc=2pass / mbtree=1 / bitrate=6131 / ratetol=3.0 / qcomp=0.60 / qpmin=0 / qpmax=69 / qpstep=4 / cplxblur=20.0 / qblur=0.5 / vbv_maxrate=14000 / vbv_bufsize=14000 / nal_hrd=none / filler=0 / ip_ratio=1.40 / aq=1:1.00
Язык : Russian
Default : Да
Forced : Нет
Аудио #1
Идентификатор : 2
Формат : AC-3
Формат/Информация : Audio Coding 3
Параметр Endianness формата : Big
Идентификатор кодека : A_AC3
Продолжительность : 1 ч. 35 м.
Вид битрейта : Постоянный
Битрейт : 448 Кбит/сек
Каналы : 1 канал
Расположение каналов : Front: C
Частота : 48,0 КГц
Частота кадров : 31,250 кадров/сек (1536 spf)
Битовая глубина : 16 бит
Метод сжатия : С потерями
Размер потока : 305 Мбайт (6%)
Язык : Russian
ServiceKind/String : Complete Main
Default : Да
Forced : Нет
Аудио #2
Идентификатор : 3
Формат : AC-3
Формат/Информация : Audio Coding 3
Параметр Endianness формата : Big
Идентификатор кодека : A_AC3
Продолжительность : 1 ч. 35 м.
Вид битрейта : Постоянный
Битрейт : 448 Кбит/сек
Каналы : 1 канал
Расположение каналов : Front: C
Частота : 48,0 КГц
Частота кадров : 31,250 кадров/сек (1536 spf)
Битовая глубина : 16 бит
Метод сжатия : С потерями
Размер потока : 305 Мбайт (6%)
Язык : English
ServiceKind/String : Complete Main
Default : Нет
Forced : Нет
Вы не можете начинать темы
Вы не можете отвечать на сообщения
Вы не можете редактировать свои сообщения
Вы не можете удалять свои сообщения
Вы не можете голосовать в опросах
Вы не можете прикреплять файлы к сообщениям
Вы можете скачивать файлы
!ВНИМАНИЕ!

Сайт не предоставляет электронные версии произведений, а занимается лишь коллекционированием и каталогизацией ссылок, присылаемых и публикуемых на форуме нашими читателями. Если вы являетесь правообладателем какого-либо представленного материала и не желаете, чтобы ссылка на него находилась в нашем каталоге, свяжитесь с нами, и мы незамедлительно удалим ее. Файлы для обмена на трекере предоставлены пользователями сайта, и администрация не несет ответственности за их содержание. Просьба не заливать файлы, защищенные авторскими правами, а также файлы нелегального содержания!

Искали программы, игры, дополнения, музыка mp3, аниме, аудио книги, журналы? Добро пожаловать на свободный торрент трекер Torrents, у нас можно скачать бесплатно, без смс и регистрации и прочих ограничений лучшие, отборные сборки программ, игр. Скачать торрентом не составит труда даже не опытному пользователю. Раздачи ежедневно обновляются, только лучшие и качественные раздачи, подробные описания и скриншоты. Огромная коллекция программ для работы со звуком, графикой, дизайном, а так же множество плагинов и инструментов к ним с подробной инструкцией и рекомендациями. Прошивки для навигаторов, карты. Разнообразные игры, для Windows, Linux. В коллекцие есть и старые игры любых жанров, Rpg, Action, Shooter, strategy Множество дополнений, модификаций, сценариев для популярных игр в жанре экш, рпг, гонки, стратегии, логические игры. Множество аддонов и сценариев для Microsoft Flight Simulator Большая коллекция книг, учебников. Если нет возможности купить печатное издание - смело скачивайте цифровую версию книги или, быть может, журнала. Не любите читать - можно загрузить бесплатно аудикнигу. Для веб дизайнеров и программистов так же найдется множество специализированного софта, таких как: редакторы с подсветкой, среды программирования, компоненты, системы управления базами данных, разнообразные скрипты и шаблоны. Не так давно у нас появился материал для автолюбителей и владельцев мото - оригинальные и неоригинальные каталоги запчастей, книги и журналы по ремонту и обслуживанию, видеоуроки, статьи по чип тюнингу, прошивкам. Процедура получения контента элементарная, достаточно просто скачать торрент файл и добавить его в загрузку в вашем торрент клиенте. Если у вас нет специального торрент клиента, вы можете его скачать у нас.

Por Las Calles De Nueva York | Android TVボックス&アクセサリー | Electric Meat Grinder