Гипс / Gips (Йорун Хубен / Jeroen Houben) [2015, Нидерланды, комедия, короткометражный, WEB-DLRip-AVC] VO + Sub Rus + Original Dut 

Цитировать
Гипс / Gips
Страна: Нидерланды
Жанр: комедия, короткометражный
Год выпуска: 2015
Продолжительность: 00:10:47
Перевод: Одноголосый закадровый
Субтитры: русские
Оригинальная аудиодорожка: нидерландский
Режиссер: Йорун Хубен / Jeroen Houben
В ролях: Роэн Тиммерманс / Rohan Timmermans, Richelle Lantinga, Хуб Смит / Huub Smit, Лотти Хеллингман / Lottie Hellingman, Ewout Eggink, Loes Schnepper, Martijn Hillenius, Ruben Jentellet, Clarisse Montenon, Дэнис Мишель / Denis Michel
Описание: Рассказ о Пелле, 12-летнем мальчике, который перед отъездом с родителями в отпуск ломает руку. Тем не менее, рука в гипсе не помешает ему завести настоящий летний роман.
Сэмпл: http://multi-up.com/1167077
Качество видео: WEB-DLRip-AVC
Формат видео: MKV
Видео: AVC at 2312 Кбит/сек : 1366 x 572 (2.388) at 25.000 fps
Аудио 1: AAC at 163 Кбит/сек : 2 канала, 96,0 КГц / 48,0 КГц Language : ru
Аудио 2: AAC at 256 Кбит/сек : 2 канала, 48,0 КГц
Формат субтитров: prerendered (IDX+SUB)
Доп. информация о субтитрах: Русские отключаемые (Евгений Венгеровский aka barbos), английские встроенные неотключаемые

MediaInfo

Общее
Уникальный идентификатор : 249450608283067810038217777205726412883 (0xBBAA708A87A163E6B342D5F5D5980053)
Полное имя : F:\С моей озвучкой\Гипс.mkv
Формат : Matroska
Версия формата : Version 4 / Version 2
Размер файла : 211 Мбайт
Продолжительность : 10 м. 47 с.
Общий поток : 2734 Кбит/сек
Дата кодирования : UTC 2017-09-03 21:19:55
Программа кодирования : mkvmerge v7.9.0 ('Birds') 64bit
Библиотека кодирования : libebml v1.3.1 + libmatroska v1.4.2
Видео
Идентификатор : 1
Формат : AVC
Формат/Информация : Advanced Video Codec
Профиль формата : High@L3.2
Параметр CABAC формата : Да
Параметр RefFrames формата : 5 кадров
Идентификатор кодека : V_MPEG4/ISO/AVC
Продолжительность : 10 м. 47 с.
Битрейт : 2312 Кбит/сек
Ширина : 1366 пикселей
Высота : 572 пикселя
Соотношение сторон : 2,40:1
Режим частоты кадров : Постоянный
Частота кадров : 25,000 кадров/сек
Цветовое пространство : YUV
Субдискретизация насыщенности : 4:2:0
Битовая глубина : 8 бит
Тип развёртки : Прогрессивная
Бит/(Пиксели*Кадры) : 0.118
Размер потока : 179 Мбайт (85%)
Библиотека кодирования : x264 core 148 r10 3f5ed56
Настройки программы : cabac=1 / ref=5 / deblock=1:0:0 / analyse=0x3:0x113 / me=umh / subme=8 / psy=1 / psy_rd=1.00:0.00 / mixed_ref=1 / me_range=16 / chroma_me=1 / trellis=1 / 8x8dct=1 / cqm=0 / deadzone=21,11 / fast_pskip=1 / chroma_qp_offset=-2 / threads=18 / lookahead_threads=3 / sliced_threads=0 / nr=0 / decimate=1 / interlaced=0 / bluray_compat=0 / stitchable=1 / constrained_intra=0 / bframes=3 / b_pyramid=2 / b_adapt=2 / b_bias=0 / direct=3 / weightb=1 / open_gop=0 / weightp=2 / keyint=infinite / keyint_min=25 / scenecut=40 / intra_refresh=0 / rc_lookahead=50 / rc=crf / mbtree=1 / crf=20.0 / qcomp=0.60 / qpmin=5 / qpmax=69 / qpstep=4 / vbv_maxrate=2750 / vbv_bufsize=7500 / crf_max=0.0 / nal_hrd=none / filler=0 / ip_ratio=1.40 / aq=1:1.00
Default : Да
Forced : Нет
Цветовой диапазон : Limited
Основные цвета : BT.709
Характеристики трансфера : BT.709
Коэффициенты матрицы : BT.709
Аудио #1
Идентификатор : 2
Формат : AAC
Формат/Информация : Advanced Audio Codec
Профиль формата : HE-AAC / LC
Идентификатор кодека : A_AAC
Продолжительность : 10 м. 47 с.
Битрейт : 163 Кбит/сек
Каналы : 2 канала
Расположение каналов : Front: L R
Частота : 96,0 КГц / 48,0 КГц
Частота кадров : 46,875 кадров/сек (1024 SPF)
Метод сжатия : С потерями
Размер потока : 12,6 Мбайт (6%)
Язык : Russian
Default : Да
Forced : Нет
Аудио #2
Идентификатор : 3
Формат : AAC
Формат/Информация : Advanced Audio Codec
Профиль формата : LC
Идентификатор кодека : A_AAC
Продолжительность : 10 м. 47 с.
Битрейт : 256 Кбит/сек
Каналы : 2 канала
Расположение каналов : Front: L R
Частота : 48,0 КГц
Частота кадров : 46,875 кадров/сек (1024 SPF)
Метод сжатия : С потерями
Размер потока : 19,8 Мбайт (9%)
Default : Нет
Forced : Нет
Текст
Идентификатор : 4
Формат : UTF-8
Идентификатор кодека : S_TEXT/UTF8
Идентификатор кодека/Информация : UTF-8 Plain Text
Продолжительность : 9 м. 35 с.
Битрейт : 55 бит/сек
ElementCount : 58
Размер потока : 3,89 Кбайт (0%)
Язык : Russian
Default : Да
Forced : Нет

Скриншоты

Вы не можете начинать темы
Вы не можете отвечать на сообщения
Вы не можете редактировать свои сообщения
Вы не можете удалять свои сообщения
Вы не можете голосовать в опросах
Вы не можете прикреплять файлы к сообщениям
Вы можете скачивать файлы
!ВНИМАНИЕ!

Сайт не предоставляет электронные версии произведений, а занимается лишь коллекционированием и каталогизацией ссылок, присылаемых и публикуемых на форуме нашими читателями. Если вы являетесь правообладателем какого-либо представленного материала и не желаете, чтобы ссылка на него находилась в нашем каталоге, свяжитесь с нами, и мы незамедлительно удалим ее. Файлы для обмена на трекере предоставлены пользователями сайта, и администрация не несет ответственности за их содержание. Просьба не заливать файлы, защищенные авторскими правами, а также файлы нелегального содержания!

Искали программы, игры, дополнения, музыка mp3, аниме, аудио книги, журналы? Добро пожаловать на свободный торрент трекер Torrents, у нас можно скачать бесплатно, без смс и регистрации и прочих ограничений лучшие, отборные сборки программ, игр. Скачать торрентом не составит труда даже не опытному пользователю. Раздачи ежедневно обновляются, только лучшие и качественные раздачи, подробные описания и скриншоты. Огромная коллекция программ для работы со звуком, графикой, дизайном, а так же множество плагинов и инструментов к ним с подробной инструкцией и рекомендациями. Прошивки для навигаторов, карты. Разнообразные игры, для Windows, Linux. В коллекцие есть и старые игры любых жанров, Rpg, Action, Shooter, strategy Множество дополнений, модификаций, сценариев для популярных игр в жанре экш, рпг, гонки, стратегии, логические игры. Множество аддонов и сценариев для Microsoft Flight Simulator Большая коллекция книг, учебников. Если нет возможности купить печатное издание - смело скачивайте цифровую версию книги или, быть может, журнала. Не любите читать - можно загрузить бесплатно аудикнигу. Для веб дизайнеров и программистов так же найдется множество специализированного софта, таких как: редакторы с подсветкой, среды программирования, компоненты, системы управления базами данных, разнообразные скрипты и шаблоны. Не так давно у нас появился материал для автолюбителей и владельцев мото - оригинальные и неоригинальные каталоги запчастей, книги и журналы по ремонту и обслуживанию, видеоуроки, статьи по чип тюнингу, прошивкам. Процедура получения контента элементарная, достаточно просто скачать торрент файл и добавить его в загрузку в вашем торрент клиенте. Если у вас нет специального торрент клиента, вы можете его скачать у нас.

Projecteurs DLP | Pergolesi, Il Flaminio | DARK SOULS™: REMASTERED (FromSoftware, Inc, BANDAI NAMCO Entertainment) (RUS|ENG|MULTi11) [L] - CODEX Подробнее... Залито: 24-05-2018 13:21 (1989 просмотров) DARK SOULS™: REMASTERED (FromSoftware, Inc, BANDAI NAMCO Entertainment) (RUS|ENG|MULTi11) [L] - CODEX Горячие новинки Раздают: 0 Качают: 0 Размер: 6.65GB