Дзета / Z (Коста-Гаврас / Costa-Gavras) [1969, Франция, Алжир, драма, детектив, исторический, BDRip 1080p] MVO (5-й канал) + AVO (Янкелевич) + Sub Eng, Fre + Original Fre 

Цитировать
Дзета / Z
Страна: Франция, Алжир
Жанр: драма, детектив, исторический
Год выпуска: 1969
Продолжительность: 02:01:52
Перевод: Профессиональный (многоголосый закадровый) - ТРК "Петербург - 5 канал"
Перевод 2: Авторский (одноголосый закадровый) - Роман Янкелевич
Субтитры: английские, французские
Оригинальная аудиодорожка: французский
Режиссер: Коста-Гаврас / Costa-Gavras
В ролях: Ив Монтан, Ирен Папас, Жан-Луи Трентиньян, Франсуа Перье, Жак Перрен, Шарль Деннер, Пьер Дюкс, Жорж Жере, Бернар Фрессон, Марсель Боззюффи, Жюльен Гиомар, Магали Ноэль, Ренато Сальватори, Хабиб Реда, Клотильда Жоано, Морис Баке, Сид Ахмед Агуми, Аллель Эль-Мухиб, Хассан Хассани, Жерар Дарьё, Жан Буиз, Жан-Пьерр Микель, Ван Доуде, Жан Дасте, Жан-Франсуа Гобби, Ги Мэресс, Андре Таинси, Ева Симонет, Франсуа Шометт, Хосе Артур, Рауль Кутар, Стив Гадлер, Габриэль Жаббур, Жорж Рукье
Описание: На митинге убит глава либеральной организации «Друзья мира». Полиция пытается представить убийство как несчастный случай. Дело получает сильный резонанс, а расследованием занимается следователь прокуратуры, который шаг за шагом получает доказательства заговора, в котором участвует как полиция, так и верхние эшелоны власти.
Доп. информация: Рип, содержащий французский оригинал и английские субтитры, скачан с кинозала и сделан пользователем msltel с этого исходника - http://rutracker.org/forum/viewtopic.php?t=5331728. Добавлены французские субтитры и французская дорога отсюда - http://rutracker.org/forum/viewtopic.php?t=5334930 - вместо несжатого оригинала.
Сэмпл: http://yadi.sk/i/N3e6T77b3Crwfm
Тип релиза: BDRip 1080p
Контейнер: MKV
Видео: 17900 Кбит/сек, PAL 1792*1080 (5:3), 25,000 кадров/сек, AVC
Аудио: Русский, 192 Кбит/сек, 48,0 КГц, 2 канала, AC-3 - многоголоска
Аудио 2: Русский, 192 Кбит/сек, 48,0 КГц, 2 канала, AC-3 - одноголоска
Аудио 3: Французский, 320 Кбит/сек, 48,0 КГц, 2 канала, FLAC
Формат субтитров: UTF, PGC

MediaInfo

Общее
Уникальный идентификатор : 172891177569100345374583240469767510552 (0x8211A12D785EB3B095027DF458D7DA18)
Полное имя : O:\MONAR\Художественные фильмы\Зарубежное кино\Дзета (1969).mkv
Формат : Matroska
Версия формата : Version 4 / Version 2
Размер файла : 15,8 Гбайт
Продолжительность : 2 ч. 1 м.
Режим общего битрейта : Переменный
Общий поток : 18,6 Мбит/сек
Название фильма : Rip by msltel
Дата кодирования : UTC 2017-02-04 17:04:43
Программа кодирования : mkvmerge v9.6.0 ('Slave To Your Mind') 64bit
Библиотека кодирования : libebml v1.3.4 + libmatroska v1.4.5
Обложка : Yes
Attachments : cover.jpg
Видео
Идентификатор : 1
Формат : AVC
Формат/Информация : Advanced Video Codec
Профиль формата : High@L4.1
Параметр CABAC формата : Да
Параметр ReFrames формата : 4 кадра
Идентификатор кодека : V_MPEG4/ISO/AVC
Продолжительность : 2 ч. 1 м.
Битрейт : 17,9 Мбит/сек
Ширина : 1792 пикселя
Высота : 1080 пикселей
Соотношение сторон : 5:3
Режим частоты кадров : Постоянный
Частота кадров : 25,000 кадров/сек
Цветовое пространство : YUV
Субдискретизация насыщенности : 4:2:0
Битовая глубина : 8 бит
Тип развёртки : Прогрессивная
Бит/(Пиксели*Кадры) : 0.369
Размер потока : 15,2 Гбайт (96%)
Библиотека кодирования : x264 core 146 r2538 121396c
Настройки программы : cabac=1 / ref=4 / deblock=1:-3:-2 / analyse=0x3:0x113 / me=umh / subme=11 / psy=1 / psy_rd=1.00:0.15 / mixed_ref=1 / me_range=32 / chroma_me=1 / trellis=2 / 8x8dct=1 / cqm=0 / deadzone=21,11 / fast_pskip=0 / chroma_qp_offset=-3 / threads=6 / lookahead_threads=1 / sliced_threads=0 / nr=0 / decimate=1 / interlaced=0 / bluray_compat=0 / constrained_intra=0 / bframes=8 / b_pyramid=2 / b_adapt=2 / b_bias=0 / direct=1 / weightb=1 / open_gop=0 / weightp=2 / keyint=240 / keyint_min=24 / scenecut=40 / intra_refresh=0 / rc_lookahead=40 / rc=crf / mbtree=0 / crf=18.3 / qcomp=0.60 / qpmin=0 / qpmax=69 / qpstep=4 / vbv_maxrate=62500 / vbv_bufsize=78125 / crf_max=0.0 / nal_hrd=none / filler=0 / ip_ratio=1.40 / pb_ratio=1.30 / aq=1:1.00
Язык : French
Default : Да
Forced : Нет
Аудио #1
Идентификатор : 2
Формат : AC-3
Формат/Информация : Audio Coding 3
Расширение режима : CM (complete main)
Параметр Endianness формата : Big
Идентификатор кодека : A_AC3
Продолжительность : 2 ч. 1 м.
Вид битрейта : Постоянный
Битрейт : 192 Кбит/сек
Каналы : 2 канала
Расположение каналов : Front: L R
Частота : 48,0 КГц
Частота кадров : 31,250 кадров/сек (1536 spf)
Битовая глубина : 16 бит
Метод сжатия : С потерями
Размер потока : 167 Мбайт (1%)
Заголовок : MVO
Язык : Russian
Default : Да
Forced : Нет
Аудио #2
Идентификатор : 3
Формат : AC-3
Формат/Информация : Audio Coding 3
Расширение режима : CM (complete main)
Параметр Endianness формата : Big
Идентификатор кодека : A_AC3
Продолжительность : 2 ч. 1 м.
Вид битрейта : Постоянный
Битрейт : 192 Кбит/сек
Каналы : 2 канала
Расположение каналов : Front: L R
Частота : 48,0 КГц
Частота кадров : 31,250 кадров/сек (1536 spf)
Битовая глубина : 16 бит
Метод сжатия : С потерями
Размер потока : 167 Мбайт (1%)
Заголовок : AVO
Язык : Russian
Default : Нет
Forced : Нет
Аудио #3
Идентификатор : 4
Формат : FLAC
Формат/Информация : Free Lossless Audio Codec
Идентификатор кодека : A_FLAC
Продолжительность : 2 ч. 1 м.
Вид битрейта : Переменный
Битрейт : 320 Кбит/сек
Каналы : 2 канала
Расположение каналов : Front: L R
Частота : 48,0 КГц
Частота кадров : 11,719 кадров/сек (4096 spf)
Битовая глубина : 16 бит
Размер потока : 279 Мбайт (2%)
Заголовок : original
Библиотека кодирования : libFLAC 1.2.1 (UTC 2007-09-17)
Язык : French
Default : Нет
Forced : Нет
Текст #1
Идентификатор : 5
Формат : UTF-8
Идентификатор кодека : S_TEXT/UTF8
Идентификатор кодека/Информация : UTF-8 Plain Text
Продолжительность : 1 ч. 59 м.
Битрейт : 63 бит/сек
Count of elements : 1705
Размер потока : 55,3 Кбайт (0%)
Заголовок : srt
Язык : English
Default : Нет
Forced : Нет
Текст #2
Идентификатор : 6
Формат : PGS
Режим смешивания : zlib
Идентификатор кодека : S_HDMV/PGS
Идентификатор кодека/Информация : Picture based subtitle format used on BDs/HD-DVDs
Продолжительность : 2 ч. 1 м.
Битрейт : 20,8 Кбит/сек
Count of elements : 4212
Размер потока : 18,1 Мбайт (0%)
Заголовок : pgs
Язык : French
Default : Нет
Forced : Нет
Меню
00:00:00.000 : :Chapter 01
00:09:20.878 : :Chapter 02
00:18:44.838 : :Chapter 03
00:29:34.078 : :Chapter 04
00:38:03.760 : :Chapter 05
00:47:57.119 : :Chapter 06
00:57:36.800 : :Chapter 07
01:08:12.079 : :Chapter 08
01:22:01.158 : :Chapter 09
01:32:34.359 : :Chapter 10
01:48:23.198 : :Chapter 11
01:57:42.680 : :Chapter 12
02:01:51.760 : :Chapter 13

Скриншоты

Вы не можете начинать темы
Вы не можете отвечать на сообщения
Вы не можете редактировать свои сообщения
Вы не можете удалять свои сообщения
Вы не можете голосовать в опросах
Вы не можете прикреплять файлы к сообщениям
Вы можете скачивать файлы
!ВНИМАНИЕ!

Сайт не предоставляет электронные версии произведений, а занимается лишь коллекционированием и каталогизацией ссылок, присылаемых и публикуемых на форуме нашими читателями. Если вы являетесь правообладателем какого-либо представленного материала и не желаете, чтобы ссылка на него находилась в нашем каталоге, свяжитесь с нами, и мы незамедлительно удалим ее. Файлы для обмена на трекере предоставлены пользователями сайта, и администрация не несет ответственности за их содержание. Просьба не заливать файлы, защищенные авторскими правами, а также файлы нелегального содержания!

Искали программы, игры, дополнения, музыка mp3, аниме, аудио книги, журналы? Добро пожаловать на свободный торрент трекер Torrents, у нас можно скачать бесплатно, без смс и регистрации и прочих ограничений лучшие, отборные сборки программ, игр. Скачать торрентом не составит труда даже не опытному пользователю. Раздачи ежедневно обновляются, только лучшие и качественные раздачи, подробные описания и скриншоты. Огромная коллекция программ для работы со звуком, графикой, дизайном, а так же множество плагинов и инструментов к ним с подробной инструкцией и рекомендациями. Прошивки для навигаторов, карты. Разнообразные игры, для Windows, Linux. В коллекцие есть и старые игры любых жанров, Rpg, Action, Shooter, strategy Множество дополнений, модификаций, сценариев для популярных игр в жанре экш, рпг, гонки, стратегии, логические игры. Множество аддонов и сценариев для Microsoft Flight Simulator Большая коллекция книг, учебников. Если нет возможности купить печатное издание - смело скачивайте цифровую версию книги или, быть может, журнала. Не любите читать - можно загрузить бесплатно аудикнигу. Для веб дизайнеров и программистов так же найдется множество специализированного софта, таких как: редакторы с подсветкой, среды программирования, компоненты, системы управления базами данных, разнообразные скрипты и шаблоны. Не так давно у нас появился материал для автолюбителей и владельцев мото - оригинальные и неоригинальные каталоги запчастей, книги и журналы по ремонту и обслуживанию, видеоуроки, статьи по чип тюнингу, прошивкам. Процедура получения контента элементарная, достаточно просто скачать торрент файл и добавить его в загрузку в вашем торрент клиенте. Если у вас нет специального торрент клиента, вы можете его скачать у нас.

Heathers – HD – DUB/LEG Online | Final Fantasy VII: On the Way to a Smile | Pułapki umysłu / Perception