Бунт в тюремном блоке №11 / Riot in Cell Block 11 (Дон Сигел / Don Siegel)[1954, США, Фильм-нуар, Драма, Криминал, DVD9 (Custom)] Avo (А. Дольский) + Sub Eng + Orig Eng / Criterion Collection#704 

Цитировать
Бунт в тюремном блоке №11 / Riot in Cell Block 11 / Criterion Collection#704 «YOU ARE CAUGHT IN THE SCORCHING CENTER OF A PRISON RIOT! YOU feel the savage frenzy of 4000 caged humans! YOU see the horror of the wolf pack on a vengeance kick! YOU sweat out every second with tortured hostages! YOU rock with the impact of brute force against bullets!»
Страна:США
Студия:Allied Artists Pictures Corporation.
Жанр:Фильм-нуар, Драма, Криминал
Год выпуска:1954
Продолжительность:01:20:27
Производитель:The Criterion Collection#704
Перевод:Авторский (одноголосый закадровый) А. Дольский
Субтитры:Английские
Оригинальная аудиодорожка:Английский
Премьера (мир):28.02.1954
Режиссер:Дон Сигел / Don Siegel
В ролях:Невилл Брэнд, Эмиль Мейер, Фрэнк Фэйлен, Лео Гордон, Роберт Остерлох, Пол Фрис, Дон Кифер, Элви Мур, Даббс Грир, Уит Бисселл
Описание:Заключённые блока N11 захватывают в заложники нескольких охранников и требуют изменений тюремного режима. Речь идёт о жестокости охранников, о перенаселённости тюрьмы, о скверном питании, о том, что психически больные заключенные должны содержаться отдельно. Лидеру восстания Джеймсу Данну удаётся удержать заключенных от расправы над заложниками и одновременно довести до сведения прессы их требования. Губернатор соглашается с условиями, выдвинутыми заключенными, и даже подписывает с ними некий договор о том, в частности, что участники восстания не будут наказаны. Но вскоре выясняется, что сенат штата не утвердил договора, подписанного губернатором, и Данну грозит новый срок — 30 лет.
Доп. информация:Исходник найден в сети.Avo А. Дольский взят из раздачиporvaliparus-http://rutracker.org/forum/viewtopic.php?t=5395051.Спонсоры перевода dmyan, porvaliparus.Огромное Спасибо Всем, без чьей помощи этот релиз не состоялся бы!
Сценарий:Ричард КоллинзПродюсер:Уолтер Уэнджер, Уолтер Мириш
Оператор:Расселл ХэрланКомпозитор:Хершел Бурк ГилбертХудожник:Дэйв Милтон, Роберт ПристлиМонтаж:Брюс Б. Пирс

Награды и номинации


Софт

PgcDemux 1.2.0.5 -> разделение компонентов диска на файлы.
BeHappy - AC3 -> Wav. Sound Forge pro 10 -> синхронизация звука
MuxMan DVD authoring Professional -> мультиплексирование и авторинг.
DVDRemake Pro 3.6.4 -> реавторинг DVD.
DVD Shrink 3.2 -> Сэмпл.--
Точка перехода.

Бонусы:(Без перевода)

--New audio commentary by film scholar Matthew H. Bernstein
--Excerpts from the director’s 1993 autobiography, A Siegel Film, read by his son Kristoffer Tabori
--Excerpts from Stuart Kaminsky’s 1974 book Don Siegel: Director, read by Tabori
--Excerpts from the 1953 NBC radio documentary series The Challenge of Our Prisons
Меню:Английский, статичное, озвученное. Тип релиза:DVD9 (Custom)
Контейнер:DVD-Video
Видео:NTSC 4:3 (720x480) VBR, 8508 Кбит/сек, 23,976 (24000/1001) кадра/сек Аудио 1:Русский:AC3, 2 ch, 48.0 KHz, 192 Кбит/сек / Авторский (одноголосый закадровый) А. ДольскийАудио 2:Английский:AC3, 1 ch, 48.0 KHz, 384 Кбит/сек / ОригиналАудио 3:Английский:AC3, 1 ch, 48.0 KHz, 192 Кбит/сек / Комментарий Matthew H. BernsteinФормат субтитров:prerendered (DVD/IDX+SUB)

Dvd Info

Title: Riot in Cell Block 11 DVD-9_Custom_Criterion#704
Size: 6.11 Gb ( 6 405 358,00 KBytes ) - DVD-9
Enabled regions: 1, 2, 3, 4, 5, 6, 7, 8
VTS_01 :
Play Length: 00:00:00
Video: NTSC 4:3 (720x480) VBR
VTS_02 :
Play Length: 00:59:05
Video: NTSC 4:3 (720x480) VBR
Audio:
English (Dolby AC3, 1 ch)
Subtitles:
English
VTS_03 :
Play Length: 00:25:06
Video: NTSC 4:3 (720x480) VBR
Audio:
English (Dolby AC3, 1 ch)
Subtitles:
English
VTS_04 :
Play Length: 00:13:01
Video: NTSC 16:9 (720x480) VBR, Auto Letterboxed
Audio:
English (Dolby AC3, 1 ch)
VTS_05 :
Play Length: 01:20:27
Video: NTSC 4:3 (720x480) VBR
Audio:
Russian (Dolby AC3, 1 ch)
English (Dolby AC3, 1 ch)
English (Dolby AC3, 1 ch)
Subtitles:
English
VTS_06 :
Play Length: 00:00:20
Video: NTSC 4:3 (720x480) VBR
VTS_07 :
Play Length: 00:00:00
Video: NTSC 4:3 (720x480) VBR

Mediainfo

Общее
Полное имя : F:\Riot in Cell Block 11 DVD-9_Custom_Criterion#704\VIDEO_TS\VTS_05_2.VOB
Формат : MPEG-PS
Размер файла : 1024 Мбайт
Продолжительность : 15 м. 7 с.
Режим общего битрейта : Переменный
Общий поток : 9464 Кбит/сек
Видео
Идентификатор : 224 (0xE0)
Формат : MPEG Video
Версия формата : Version 2
Профиль формата : Main@Main
Параметр BVOP формата : Да
Параметр матрицы формата : Выборочная
Параметр GOP формата : Variable
Продолжительность : 15 м. 7 с.
Вид битрейта : Переменный
Битрейт : 8508 Кбит/сек
Максимальный битрейт : 9800 Кбит/сек
Ширина : 720 пикселей
Высота : 480 пикселей
Соотношение сторон : 4:3
Частота кадров : 23,976 (24000/1001) кадра/сек
Цветовое пространство : YUV
Субдискретизация насыщенности : 4:2:0
Битовая глубина : 8 бит
Тип развёртки : Прогрессивная
Порядок развёртки : 2:3 Pulldown
Метод сжатия : С потерями
Бит/(Пиксели*Кадры) : 1.027
Временной код первого кадра : 01:15:34:11
Оригинал временного кода : Group of pictures header
Размер потока : 920 Мбайт (90%)
Аудио #1
Идентификатор : 189 (0xBD)-128 (0x80)
Формат : AC-3
Формат/Информация : Audio Coding 3
Расширение режима : CM (complete main)
Параметр Endianness формата : Big
Режим смешивания : DVD-Video
Продолжительность : 15 м. 7 с.
Вид битрейта : Постоянный
Битрейт : 192 Кбит/сек
Каналы : 1 канал
Расположение каналов : Front: C
Частота : 48,0 КГц
Частота кадров : 31,250 кадров/сек (1536 spf)
Метод сжатия : С потерями
Задержка видео : -548 мс.
Размер потока : 20,8 Мбайт (2%)
Аудио #2
Идентификатор : 189 (0xBD)-129 (0x81)
Формат : AC-3
Формат/Информация : Audio Coding 3
Расширение режима : CM (complete main)
Параметр Endianness формата : Big
Режим смешивания : DVD-Video
Продолжительность : 15 м. 7 с.
Вид битрейта : Постоянный
Битрейт : 384 Кбит/сек
Каналы : 1 канал
Расположение каналов : Front: C
Частота : 48,0 КГц
Частота кадров : 31,250 кадров/сек (1536 spf)
Метод сжатия : С потерями
Задержка видео : -612 мс.
Размер потока : 41,5 Мбайт (4%)
Аудио #3
Идентификатор : 189 (0xBD)-130 (0x82)
Формат : AC-3
Формат/Информация : Audio Coding 3
Расширение режима : CM (complete main)
Параметр Endianness формата : Big
Режим смешивания : DVD-Video
Продолжительность : 15 м. 7 с.
Вид битрейта : Постоянный
Битрейт : 192 Кбит/сек
Каналы : 1 канал
Расположение каналов : Front: C
Частота : 48,0 КГц
Частота кадров : 31,250 кадров/сек (1536 spf)
Метод сжатия : С потерями
Задержка видео : -548 мс.
Размер потока : 20,8 Мбайт (2%)
Текст
Идентификатор : 189 (0xBD)-32 (0x20)
Формат : RLE
Формат/Информация : Run-length encoding
Режим смешивания : DVD-Video

Скриншоты меню

Скриншоты фильма

Скриншоты доп. материалов



Полиграфия



Релиз: Уважаемые пользователи!Найдите пару минут поблагодарить релизера и высказаться в топике раздачи.Ваше мнение - бальзам для раздающего и пища для ума остальным пользователям.Мои раздачи
Вы не можете начинать темы
Вы не можете отвечать на сообщения
Вы не можете редактировать свои сообщения
Вы не можете удалять свои сообщения
Вы не можете голосовать в опросах
Вы не можете прикреплять файлы к сообщениям
Вы можете скачивать файлы
!ВНИМАНИЕ!

Сайт не предоставляет электронные версии произведений, а занимается лишь коллекционированием и каталогизацией ссылок, присылаемых и публикуемых на форуме нашими читателями. Если вы являетесь правообладателем какого-либо представленного материала и не желаете, чтобы ссылка на него находилась в нашем каталоге, свяжитесь с нами, и мы незамедлительно удалим ее. Файлы для обмена на трекере предоставлены пользователями сайта, и администрация не несет ответственности за их содержание. Просьба не заливать файлы, защищенные авторскими правами, а также файлы нелегального содержания!

Искали программы, игры, дополнения, музыка mp3, аниме, аудио книги, журналы? Добро пожаловать на свободный торрент трекер Torrents, у нас можно скачать бесплатно, без смс и регистрации и прочих ограничений лучшие, отборные сборки программ, игр. Скачать торрентом не составит труда даже не опытному пользователю. Раздачи ежедневно обновляются, только лучшие и качественные раздачи, подробные описания и скриншоты. Огромная коллекция программ для работы со звуком, графикой, дизайном, а так же множество плагинов и инструментов к ним с подробной инструкцией и рекомендациями. Прошивки для навигаторов, карты. Разнообразные игры, для Windows, Linux. В коллекцие есть и старые игры любых жанров, Rpg, Action, Shooter, strategy Множество дополнений, модификаций, сценариев для популярных игр в жанре экш, рпг, гонки, стратегии, логические игры. Множество аддонов и сценариев для Microsoft Flight Simulator Большая коллекция книг, учебников. Если нет возможности купить печатное издание - смело скачивайте цифровую версию книги или, быть может, журнала. Не любите читать - можно загрузить бесплатно аудикнигу. Для веб дизайнеров и программистов так же найдется множество специализированного софта, таких как: редакторы с подсветкой, среды программирования, компоненты, системы управления базами данных, разнообразные скрипты и шаблоны. Не так давно у нас появился материал для автолюбителей и владельцев мото - оригинальные и неоригинальные каталоги запчастей, книги и журналы по ремонту и обслуживанию, видеоуроки, статьи по чип тюнингу, прошивкам. Процедура получения контента элементарная, достаточно просто скачать торрент файл и добавить его в загрузку в вашем торрент клиенте. Если у вас нет специального торрент клиента, вы можете его скачать у нас.

Distance: les plus proches | Uriel Reymund | Thunderbolt Fantasy: Seishi Ikken (2017)