Легкая жизнь / La vie facile (Жюльен Руйе / Julien Rouyet) [2010, Швейцария, психологический триллер, драма, короткий метр, DVB] DVO (Студия Акцент) + Original (Fre) 

Цитировать
Легкая жизнь
La vie facile- Страна: Швейцария
Жанр: психологический триллер, драма, короткий метр
Год выпуска: 2010
Продолжительность: 00:21:12
Перевод: Профессиональный (двухголосый закадровый) Студия "Акцент" по заказу Kino Polska
Субтитры: нет
Оригинальная аудиодорожка: французский
Режиссер: Жюльен Руйе / Julien RouyetВ ролях: Мило МакМюллен / Milo McMullen (Catherine), Мишель Войта / Michel Voïta (Le père), Дельфин Теодор / Delphine Théodore (Laetitia), Батист Жильерон / Baptiste Gilliéron (Le frère)
Описание: Вам предлагается история о хрупкости, зыбкости, но и одновременно превалировании семейных уз. 26-летней Катрин беззаботно живется в доме отца до того момента, пока однажды вернувшись поздно вечером домой она не обнаружит там другую женщину, почти свою ровесницу. Привязанность отца к новой любовнице и все возрастающее ее влияние начинают тяготить Катрин, повергают ее в состояние страха и гнева, и она предпринимает попытки вернуться к прежней жизни…
Доп. информация: Intelsat 15 (85.0°E) Filmbox Arthouse DVB-S
Участник Festival international du film francophone Namur 2011; Rochester International Film Festival 2011; Internationale Kurzfilmtage Winterthur 2011; Festival International du Cinéma Francophone en Acadie 2011; Geneva International Short Film Festival 2012; Solothurner Filmtage 2012.

Качество видео: DVB
Формат видео: MKV
Видео: MPEG Video 2, 720x576@1024x576 (16:9), 25 fps, ~1423 kbps avg, 0.137 bit/pixel
Аудио 1: MPEG Audio 2, 2 ch, 48 kHz, 128 kbps - русский
Аудио 2: MPEG Audio 2, 2 ch, 48 kHz, 128 kbps - французский

MediaInfo

General
Unique ID : 181093922697137455789229712588871217904 (0x883D6BBC9F48CD658666445ED2AEB2F0)
Complete name : [apreder]MM_La_vie_facile(2010)DVB.mkv
Format : Matroska
Format version : Version 2
File size : 260 MiB
Duration : 21 min 12 s
Overall bit rate mode : Variable
Overall bit rate : 1 713 kb/s
Movie name : La vie facile
Released date : 2011-00-00
Encoded date : UTC 2017-08-15 15:35:36
Writing application : mkvmerge v14.0.0 ('Flow') 64bit
Writing library : libebml v1.3.4 + libmatroska v1.4.5
Cover : Yes
Attachments : cover.jpg / small_cover.jpg
ACTOR : Milo McMullen, Michel Voita, Delphine Theodore
DIRECTOR : Julien Rouyet
GENRE : Short, Drama
IMDB : tt2035549
KEYWORDS : rutracker.org
LAW_RATING : 16+
Video
ID : 1
Format : MPEG Video
Format version : Version 2
Format profile : Main@Main
Format settings, BVOP : Yes
Format settings, Matrix : Custom
Format settings, GOP : M=4, N=12
Format settings, picture structure : Frame
Codec ID : V_MPEG2
Codec ID/Info : MPEG 1 or 2 Video
Duration : 21 min 12 s
Bit rate mode : Variable
Bit rate : 1 423 kb/s
Maximum bit rate : 10 000 kb/s
Width : 720 pixels
Height : 576 pixels
Display aspect ratio : 16:9
Frame rate mode : Constant
Frame rate : 25.000 FPS
Standard : PAL
Color space : YUV
Chroma subsampling : 4:2:0
Bit depth : 8 bits
Scan type : Interlaced
Scan order : Top Field First
Compression mode : Lossy
Bits/(Pixel*Frame) : 0.137
Time code of first frame : 10:30:32:02
Time code source : Group of pictures header
GOP, Open/Closed : Open
Stream size : 216 MiB (83%)
Default : Yes
Forced : No
Audio #1
ID : 2
Format : MPEG Audio
Format version : Version 1
Format profile : Layer 2
Codec ID : A_MPEG/L2
Codec ID/Hint : MP2
Duration : 21 min 12 s
Bit rate mode : Constant
Bit rate : 128 kb/s
Channel(s) : 2 channels
Sampling rate : 48.0 kHz
Compression mode : Lossy
Stream size : 19.4 MiB (7%)
Language : Russian
Default : Yes
Forced : No
Audio #2
ID : 3
Format : MPEG Audio
Format version : Version 1
Format profile : Layer 2
Codec ID : A_MPEG/L2
Codec ID/Hint : MP2
Duration : 21 min 12 s
Bit rate mode : Constant
Bit rate : 128 kb/s
Channel(s) : 2 channels
Sampling rate : 48.0 kHz
Compression mode : Lossy
Stream size : 19.4 MiB (7%)
Language : French
Default : No
Forced : No

Скриншот c названием фильма

Скриншоты

Резервные скриншоты

- [3'825]
Вы не можете начинать темы
Вы не можете отвечать на сообщения
Вы не можете редактировать свои сообщения
Вы не можете удалять свои сообщения
Вы не можете голосовать в опросах
Вы не можете прикреплять файлы к сообщениям
Вы можете скачивать файлы
!ВНИМАНИЕ!

Сайт не предоставляет электронные версии произведений, а занимается лишь коллекционированием и каталогизацией ссылок, присылаемых и публикуемых на форуме нашими читателями. Если вы являетесь правообладателем какого-либо представленного материала и не желаете, чтобы ссылка на него находилась в нашем каталоге, свяжитесь с нами, и мы незамедлительно удалим ее. Файлы для обмена на трекере предоставлены пользователями сайта, и администрация не несет ответственности за их содержание. Просьба не заливать файлы, защищенные авторскими правами, а также файлы нелегального содержания!

Искали программы, игры, дополнения, музыка mp3, аниме, аудио книги, журналы? Добро пожаловать на свободный торрент трекер Torrents, у нас можно скачать бесплатно, без смс и регистрации и прочих ограничений лучшие, отборные сборки программ, игр. Скачать торрентом не составит труда даже не опытному пользователю. Раздачи ежедневно обновляются, только лучшие и качественные раздачи, подробные описания и скриншоты. Огромная коллекция программ для работы со звуком, графикой, дизайном, а так же множество плагинов и инструментов к ним с подробной инструкцией и рекомендациями. Прошивки для навигаторов, карты. Разнообразные игры, для Windows, Linux. В коллекцие есть и старые игры любых жанров, Rpg, Action, Shooter, strategy Множество дополнений, модификаций, сценариев для популярных игр в жанре экш, рпг, гонки, стратегии, логические игры. Множество аддонов и сценариев для Microsoft Flight Simulator Большая коллекция книг, учебников. Если нет возможности купить печатное издание - смело скачивайте цифровую версию книги или, быть может, журнала. Не любите читать - можно загрузить бесплатно аудикнигу. Для веб дизайнеров и программистов так же найдется множество специализированного софта, таких как: редакторы с подсветкой, среды программирования, компоненты, системы управления базами данных, разнообразные скрипты и шаблоны. Не так давно у нас появился материал для автолюбителей и владельцев мото - оригинальные и неоригинальные каталоги запчастей, книги и журналы по ремонту и обслуживанию, видеоуроки, статьи по чип тюнингу, прошивкам. Процедура получения контента элементарная, достаточно просто скачать торрент файл и добавить его в загрузку в вашем торрент клиенте. Если у вас нет специального торрент клиента, вы можете его скачать у нас.

Bebé e infancia | The Fits (2015) | Generic Gift Bundle Of DZ09 Smart Watch Phone With Free Bluetooth headset and selfie stick - Silver Black -68% KSh 1,935 KSh 6,000 (111) Buy now