Розовая пантера / The Pink Panther (Блейк Эдвардс / Blake Edwards) [1963, США, Великобритания, комедия, детектив, BDRemux 1080p] Dub (ТНТ) + AVO (Алексей Михалев) + 7x MVO + Sub Eng + Original Eng 

Цитировать
Розовая пантера / The Pink Panther
- Он добрый, верный, преданный, послушный.
- Ты вышла замуж за бойскаута или за таксу.
- И он обожает меня.
- Бойскаута исключаем.

Страна: США, Великобритания
Жанр: комедия, детектив
Год выпуска: 1963
Продолжительность: 01:55:08
Перевод 1: Профессиональный - дубляж (канал ТНТ)
Перевод 2: Авторский одноголосый (Алексей Михалев)
Перевод 3: Профессиональный двухголосый закадровый (НТВ+)
Перевод 4: Профессиональный двухголосый закадровый (НТВ)
Перевод 5: Профессиональный многоголосый закадровый (5 канал СПб)
Перевод 6: Профессиональный - многоголосый закадровый (SomeWax)
Перевод 7: Профессиональный - многоголосый закадровый (Карусель)
Перевод 8: Профессиональный - многоголосый закадровый
Перевод 9: Профессиональный - многоголосый закадровый (НТН)
Русские субтитры: нет
Субтитры: английские
Оригинальная аудиодорожка: английский
Режиссер: Блейк Эдвардс / Blake Edwards
В ролях: Питер Селлерс /Peter Sellers/, Клаудиа Кардинале /Claudia Cardinale/, Девид Найвен /David Niven/, Бренда де Банзи /Brenda De Banzie/, Роберт Вагнер /Robert Wagner/, Капучине /Capucine/
Описание: Блестящая, превосходная комедия, в которой инспектор Клузо одержим неистовым желанием поймать неуловимого и хитрого похитителя драгоценностей "Призрака". Гигантский бриллиант "Розовая пантера", подаренный индийским шейхом своей дочери, станет той наживкой, на которую должен клюнуть грабитель. Расставляя свои хитроумные сети, полицейский и не подозревает, что сам в них попадет. Головокружительный сюжет этого фильма прекрасно дополнила музыка Генри Манчини, а основная музыкальная тема "Розовая пантера" стала мировым музыкальным хитом на многие годы.
Доп. информация: - Дорожка с переводом А.Михалева получена наложением перевода на центр оригинального звука. За предоставленный чистый голос огромная благодарность arvideo.
- Дорожка с переводом телекомпании НТН получена наложением перевода на центр оригинального звука. За чистый перевод телекомпании НТН спасибо HDCLUB и MachoSergio.
- Дорожка с переводом SomeWax получена наложением выделенных с DVD голосов перевода на центр оригинального звука.
- За исходник дорожки с дубляжом спасибо moisal.
- За исходник дорожки НТВ+ спасибо flaSI-I.
- За исходник дорожки НТВ спасибо migorr.
Сэмпл: http://multi-up.com/1154371
Тип релиза: BDRemux 1080p
Контейнер: MKV
Видео: 1920x1080, 23.976 fps, AVC, 33882 kbps
Аудио 1: Русский AC3 2.0 192 kbps - Дубляж (канал ТНТ)
Аудио 2: Русский DTS-HD MA 5.1 3580 kbps / DTS 5.1 768 kbps - авторский одноголосый (Алексей Михалев)
Аудио 3: Русский AC3 2.0 192 kbps - двухголосый закадровый (НТВ+)
Аудио 4: Русский AC3 2.0 192 kbps - двухголосый закадровый (НТВ)
Аудио 5: Русский AC3 2.0 192 kbps - многоголосый закадровый (5 канал СПб)
Аудио 6: Русский DTS 5.1 1536 kbps - многоголосый закадровый (SomeWax)
Аудио 7: Русский AC3 5.1 384 kbps - двухголосый закадровый (Карусель)
Аудио 8: Русский AC3 5.1 448 kbps - многоголосый закадровый
Аудио 9: Русский DTS 5.1 1536 kbps - многоголосый закадровый (НТН)
Аудио 5: Английский DTS-HD MA 5.1 3750 kbps / DTS 5.1 1536 kbps
Аудио 7: Английский AC3 2.0 224 kbps (комментарии Блейка Эдвардса)
Формат субтитров: softsub (SRT)

MediaInfo

General
Unique ID : 231530830284021899024724897222637884310 (0xAE2F3745D4B0533286492B92803F9396)
Complete name : G:\_PP63_BD-Remux\Pink Panther ~ 1963 ~ BD-Remux ~ AV.mkv
Format : Matroska
Format version : Version 4 / Version 2
File size : 37.0 GiB
Duration : 1h 55mn
Overall bit rate mode : Variable
Overall bit rate : 46.1 Mbps
Encoded date : UTC 2017-05-17 21:23:49
Writing application : mkvmerge v9.9.0 ('Pick Up') 64bit
Writing library : libebml v1.3.4 + libmatroska v1.4.5
DURATION : 01:54:13.805000000
NUMBER_OF_FRAMES : 803
NUMBER_OF_BYTES : 35557
_STATISTICS_WRITING_APP : mkvmerge v9.9.0 ('Pick Up') 64bit
_STATISTICS_WRITING_DATE_UTC : 2017-05-17 21:23:49
_STATISTICS_TAGS : BPS DURATION NUMBER_OF_FRAMES NUMBER_OF_BYTES
Video
ID : 1
Format : AVC
Format/Info : Advanced Video Codec
Format profile : High@L4.1
Format settings, CABAC : Yes
Format settings, RefFrames : 4 frames
Codec ID : V_MPEG4/ISO/AVC
Duration : 1 h 55 min
Bit rate mode : Variable
Bit rate : 33.9 Mb/s
Maximum bit rate : 35.9 Mb/s
Width : 1 920 pixels
Height : 1 080 pixels
Display aspect ratio : 16:9
Frame rate mode : Constant
Frame rate : 23.976 (24000/1001) FPS
Color space : YUV
Chroma subsampling : 4:2:0
Bit depth : 8 bits
Scan type : Progressive
Bits/(Pixel*Frame) : 0.681
Stream size : 27.2 GiB (74%)
Default : Yes
Forced : No
Color range : Limited
Color primaries : BT.709
Transfer characteristics : BT.709
Matrix coefficients : BT.709
Audio #1
ID : 2
Format : AC-3
Format/Info : Audio Coding 3
Format settings, Endianness : Big
Codec ID : A_AC3
Duration : 1 h 55 min
Bit rate mode : Constant
Bit rate : 192 kb/s
Channel(s) : 2 channels
Channel positions : Front: L R
Sampling rate : 48.0 kHz
Frame rate : 31.250 FPS (1536 SPF)
Bit depth : 16 bits
Compression mode : Lossy
Stream size : 158 MiB (0%)
Title : РУССКИЙ: Дубляж (канал ТНТ)
Language : Russian
Service kind : Complete Main
Default : Yes
Forced : No
Audio #2
ID : 3
Format : DTS
Format/Info : Digital Theater Systems
Format profile : MA / Core
Mode : 16
Format settings, Endianness : Big
Codec ID : A_DTS
Duration : 1 h 55 min
Bit rate mode : Variable / Constant
Bit rate : 3 580 kb/s / 768 kb/s
Channel(s) : 6 channels
Channel positions : Front: L C R, Side: L R, LFE
Sampling rate : 48.0 kHz
Frame rate : 93.750 FPS (512 SPF)
Bit depth : 24 bits
Compression mode : Lossless / Lossy
Stream size : 2.88 GiB (8%)
Title : РУССКИЙ: авторский одноголосый (Алексей Михалев)
Language : Russian
Default : No
Forced : No
Audio #3
ID : 4
Format : AC-3
Format/Info : Audio Coding 3
Format settings, Endianness : Big
Codec ID : A_AC3
Duration : 1 h 55 min
Bit rate mode : Constant
Bit rate : 192 kb/s
Channel(s) : 2 channels
Channel positions : Front: L R
Sampling rate : 48.0 kHz
Frame rate : 31.250 FPS (1536 SPF)
Bit depth : 16 bits
Compression mode : Lossy
Stream size : 158 MiB (0%)
Title : РУССКИЙ: двухголосый закадровый (НТВ+)
Language : Russian
Service kind : Complete Main
Default : No
Forced : No
Audio #4
ID : 5
Format : AC-3
Format/Info : Audio Coding 3
Format settings, Endianness : Big
Codec ID : A_AC3
Duration : 1 h 55 min
Bit rate mode : Constant
Bit rate : 192 kb/s
Channel(s) : 2 channels
Channel positions : Front: L R
Sampling rate : 48.0 kHz
Frame rate : 31.250 FPS (1536 SPF)
Bit depth : 16 bits
Compression mode : Lossy
Stream size : 158 MiB (0%)
Title : РУССКИЙ: двухголосый закадровый (НТВ)
Language : Russian
Service kind : Complete Main
Default : No
Forced : No
Audio #5
ID : 6
Format : AC-3
Format/Info : Audio Coding 3
Format settings, Endianness : Big
Codec ID : A_AC3
Duration : 1 h 55 min
Bit rate mode : Constant
Bit rate : 192 kb/s
Channel(s) : 2 channels
Channel positions : Front: L R
Sampling rate : 48.0 kHz
Frame rate : 31.250 FPS (1536 SPF)
Bit depth : 16 bits
Compression mode : Lossy
Stream size : 158 MiB (0%)
Title : РУССКИЙ: многоголосый закадровый (5 канал СПб)
Language : Russian
Service kind : Complete Main
Default : No
Forced : No
Audio #6
ID : 7
Format : DTS
Format/Info : Digital Theater Systems
Mode : 16
Format settings, Endianness : Big
Codec ID : A_DTS
Duration : 1 h 55 min
Bit rate mode : Constant
Bit rate : 1 510 kb/s
Channel(s) : 6 channels
Channel positions : Front: L C R, Side: L R, LFE
Sampling rate : 48.0 kHz
Frame rate : 93.750 FPS (512 SPF)
Bit depth : 24 bits
Compression mode : Lossy
Stream size : 1.21 GiB (3%)
Title : РУССКИЙ: многоголосый закадровый (SomeWax)
Language : Russian
Default : No
Forced : No
Audio #7
ID : 8
Format : AC-3
Format/Info : Audio Coding 3
Format settings, Endianness : Big
Codec ID : A_AC3
Duration : 1 h 55 min
Bit rate mode : Constant
Bit rate : 384 kb/s
Channel(s) : 6 channels
Channel positions : Front: L C R, Side: L R, LFE
Sampling rate : 48.0 kHz
Frame rate : 31.250 FPS (1536 SPF)
Bit depth : 16 bits
Compression mode : Lossy
Stream size : 316 MiB (1%)
Title : РУССКИЙ: двухголосый закадровый (Карусель)
Language : Russian
Service kind : Complete Main
Default : No
Forced : No
Audio #8
ID : 9
Format : AC-3
Format/Info : Audio Coding 3
Format settings, Endianness : Big
Codec ID : A_AC3
Duration : 1 h 55 min
Bit rate mode : Constant
Bit rate : 448 kb/s
Channel(s) : 6 channels
Channel positions : Front: L C R, Side: L R, LFE
Sampling rate : 48.0 kHz
Frame rate : 31.250 FPS (1536 SPF)
Bit depth : 16 bits
Compression mode : Lossy
Stream size : 369 MiB (1%)
Title : РУССКИЙ: многоголосый закадровый
Language : Russian
Service kind : Complete Main
Default : No
Forced : No
Audio #9
ID : 10
Format : DTS
Format/Info : Digital Theater Systems
Mode : 16
Format settings, Endianness : Big
Codec ID : A_DTS
Duration : 1 h 55 min
Bit rate mode : Constant
Bit rate : 1 510 kb/s
Channel(s) : 6 channels
Channel positions : Front: L C R, Side: L R, LFE
Sampling rate : 48.0 kHz
Frame rate : 93.750 FPS (512 SPF)
Bit depth : 24 bits
Compression mode : Lossy
Stream size : 1.21 GiB (3%)
Title : РУССКИЙ: многоголосый закадровый (НТН)
Language : Russian
Default : No
Forced : No
Audio #10
ID : 11
Format : DTS
Format/Info : Digital Theater Systems
Format profile : MA / Core
Mode : 16
Format settings, Endianness : Big
Codec ID : A_DTS
Duration : 1 h 55 min
Bit rate mode : Variable / Constant
Bit rate : 3 750 kb/s / 1 509 kb/s
Channel(s) : 6 channels
Channel positions : Front: L C R, Side: L R, LFE
Sampling rate : 48.0 kHz
Frame rate : 93.750 FPS (512 SPF)
Bit depth : 24 bits
Compression mode : Lossless / Lossy
Stream size : 3.02 GiB (8%)
Title : ENGLISH
Language : English
Default : No
Forced : No
Audio #11
ID : 12
Format : AC-3
Format/Info : Audio Coding 3
Format settings, Endianness : Big
Codec ID : A_AC3
Duration : 1 h 55 min
Bit rate mode : Constant
Bit rate : 224 kb/s
Channel(s) : 2 channels
Channel positions : Front: L R
Sampling rate : 48.0 kHz
Frame rate : 31.250 FPS (1536 SPF)
Bit depth : 16 bits
Compression mode : Lossy
Stream size : 184 MiB (0%)
Title : ENGLISH (Commentary by Blake Edwards)
Language : English
Service kind : Complete Main
Default : No
Forced : No
Text #1
ID : 13
Format : UTF-8
Codec ID : S_TEXT/UTF8
Codec ID/Info : UTF-8 Plain Text
Duration : 1 h 54 min
Bit rate : 62 b/s
Count of elements : 1677
Stream size : 52.5 KiB (0%)
Title : ENGLISH SDH
Language : English
Default : No
Forced : No
Text #2
ID : 14
Format : UTF-8
Codec ID : S_TEXT/UTF8
Codec ID/Info : UTF-8 Plain Text
Duration : 1 h 54 min
Bit rate : 41 b/s
Count of elements : 803
Stream size : 34.7 KiB (0%)
Title : ENGLISH (Commentary by Blake Edwards)
Language : English
Default : No
Forced : No
Menu
00:00:00.000 : en:Chapter 1
00:04:59.132 : en:Chapter 2
00:06:47.281 : en:Chapter 3
00:08:21.000 : en:Chapter 4
00:11:11.796 : en:Chapter 5
00:15:48.405 : en:Chapter 6
00:18:50.754 : en:Chapter 7
00:20:14.296 : en:Chapter 8
00:22:17.669 : en:Chapter 9
00:24:08.905 : en:Chapter 10
00:26:33.466 : en:Chapter 11
00:33:34.220 : en:Chapter 12
00:35:48.396 : en:Chapter 13
00:40:44.942 : en:Chapter 14
00:46:11.435 : en:Chapter 15
00:52:44.619 : en:Chapter 16
00:56:26.007 : en:Chapter 17
00:59:40.493 : en:Chapter 18
01:04:36.372 : en:Chapter 19
01:11:27.866 : en:Chapter 20
01:14:50.819 : en:Chapter 21
01:19:03.113 : en:Chapter 22
01:21:59.372 : en:Chapter 23
01:24:54.130 : en:Chapter 24
01:27:30.328 : en:Chapter 25
01:33:50.333 : en:Chapter 26
01:37:31.095 : en:Chapter 27
01:40:37.072 : en:Chapter 28
01:44:19.544 : en:Chapter 29
01:46:14.284 : en:Chapter 30
01:48:10.817 : en:Chapter 31
01:52:33.955 : en:Chapter 32

Скриншоты


Вы не можете начинать темы
Вы не можете отвечать на сообщения
Вы не можете редактировать свои сообщения
Вы не можете удалять свои сообщения
Вы не можете голосовать в опросах
Вы не можете прикреплять файлы к сообщениям
Вы можете скачивать файлы
!ВНИМАНИЕ!

Сайт не предоставляет электронные версии произведений, а занимается лишь коллекционированием и каталогизацией ссылок, присылаемых и публикуемых на форуме нашими читателями. Если вы являетесь правообладателем какого-либо представленного материала и не желаете, чтобы ссылка на него находилась в нашем каталоге, свяжитесь с нами, и мы незамедлительно удалим ее. Файлы для обмена на трекере предоставлены пользователями сайта, и администрация не несет ответственности за их содержание. Просьба не заливать файлы, защищенные авторскими правами, а также файлы нелегального содержания!

Искали программы, игры, дополнения, музыка mp3, аниме, аудио книги, журналы? Добро пожаловать на свободный торрент трекер Torrents, у нас можно скачать бесплатно, без смс и регистрации и прочих ограничений лучшие, отборные сборки программ, игр. Скачать торрентом не составит труда даже не опытному пользователю. Раздачи ежедневно обновляются, только лучшие и качественные раздачи, подробные описания и скриншоты. Огромная коллекция программ для работы со звуком, графикой, дизайном, а так же множество плагинов и инструментов к ним с подробной инструкцией и рекомендациями. Прошивки для навигаторов, карты. Разнообразные игры, для Windows, Linux. В коллекцие есть и старые игры любых жанров, Rpg, Action, Shooter, strategy Множество дополнений, модификаций, сценариев для популярных игр в жанре экш, рпг, гонки, стратегии, логические игры. Множество аддонов и сценариев для Microsoft Flight Simulator Большая коллекция книг, учебников. Если нет возможности купить печатное издание - смело скачивайте цифровую версию книги или, быть может, журнала. Не любите читать - можно загрузить бесплатно аудикнигу. Для веб дизайнеров и программистов так же найдется множество специализированного софта, таких как: редакторы с подсветкой, среды программирования, компоненты, системы управления базами данных, разнообразные скрипты и шаблоны. Не так давно у нас появился материал для автолюбителей и владельцев мото - оригинальные и неоригинальные каталоги запчастей, книги и журналы по ремонту и обслуживанию, видеоуроки, статьи по чип тюнингу, прошивкам. Процедура получения контента элементарная, достаточно просто скачать торрент файл и добавить его в загрузку в вашем торрент клиенте. Если у вас нет специального торрент клиента, вы можете его скачать у нас.

Bild der Frau (8) | Angelo GodShack - Four Big Cocks Double Anal SD mp4 | Tamashii Shizume