Странные облака / Strange Clouds (Тимоти Джон Шарп / Timothy John Sharp) [2012, Австралия, драма, фантастика, короткометражный, WEB-DLRip-AVC] VO + Sub Rus + Original Eng 

Цитировать
Странные облака / Strange Clouds
Страна: Австралия
Жанр: драма, фантастика, короткометражный
Год выпуска: 2012
Продолжительность: 00:11:10
Перевод: Одноголосый закадровый
Субтитры: русские
Оригинальная аудиодорожка: английский
Режиссер: Тимоти Джон Шарп / Timothy John Sharp
В ролях: Джейкоб Браун / Jacob Brown, William Mattock, Scott Morgan, Nina Deasley
Описание: Трое подростков пытаются найти себе занятие очередным скучным днём, не подозревая, что этот день - последний...
Сэмпл: http://multi-up.com/1165292
Качество видео: WEB-DLRip-AVC
Формат видео: MKV
Видео: AVC at 1800 Кбит/сек : 1920 x 812 (2.365) at 25.000 fps
Аудио 1: AAC at 125 Кбит/сек : 2 канала, 88,2 КГц / 44,1 КГц Language : ru
Аудио 2: AAC at 127 Кбит/сек : 2 канала, 44,1 КГц Language : en
Формат субтитров: prerendered (IDX+SUB)
Доп. информация о субтитрах: отключаемые (vlad555)

MediaInfo

Общее
Уникальный идентификатор : 254669892637162620911553524237532463640 (0xBF97A3209CD5F823A736050A830D0218)
Полное имя : F:\С моей озвучкой\Странные облака.mkv
Формат : Matroska
Версия формата : Version 4 / Version 2
Размер файла : 158 Мбайт
Продолжительность : 11 м. 10 с.
Общий поток : 1983 Кбит/сек
Дата кодирования : UTC 2017-08-18 19:00:16
Программа кодирования : mkvmerge v7.9.0 ('Birds') 64bit
Библиотека кодирования : libebml v1.3.1 + libmatroska v1.4.2
Видео
Идентификатор : 1
Формат : AVC
Формат/Информация : Advanced Video Codec
Профиль формата : Baseline@L4
Параметр CABAC формата : Нет
Параметр ReFrames формата : 1 кадр
Идентификатор кодека : V_MPEG4/ISO/AVC
Продолжительность : 11 м. 10 с.
Битрейт : 1800 Кбит/сек
Ширина : 1920 пикселей
Высота : 812 пикселей
Соотношение сторон : 2,35:1
Режим частоты кадров : Постоянный
Частота кадров : 25,000 кадров/сек
Цветовое пространство : YUV
Субдискретизация насыщенности : 4:2:0
Битовая глубина : 8 бит
Тип развёртки : Прогрессивная
Бит/(Пиксели*Кадры) : 0.046
Размер потока : 138 Мбайт (87%)
Библиотека кодирования : x264 core 148 r2643 5c65704
Настройки программы : cabac=0 / ref=1 / deblock=1:0:0 / analyse=0x1:0x111 / me=hex / subme=7 / psy=1 / psy_rd=1.00:0.00 / mixed_ref=0 / me_range=16 / chroma_me=1 / trellis=1 / 8x8dct=0 / cqm=0 / deadzone=21,11 / fast_pskip=1 / chroma_qp_offset=-2 / threads=9 / lookahead_threads=1 / sliced_threads=0 / nr=0 / decimate=1 / interlaced=0 / bluray_compat=0 / constrained_intra=0 / bframes=0 / weightp=0 / keyint=250 / keyint_min=25 / scenecut=40 / intra_refresh=0 / rc_lookahead=40 / rc=abr / mbtree=1 / bitrate=1800 / ratetol=1.0 / qcomp=0.60 / qpmin=10 / qpmax=51 / qpstep=4 / ip_ratio=1.41 / aq=1:1.00
Default : Да
Forced : Нет
Аудио #1
Идентификатор : 2
Формат : AAC
Формат/Информация : Advanced Audio Codec
Профиль формата : HE-AAC / LC
Идентификатор кодека : A_AAC
Продолжительность : 11 м. 8 с.
Битрейт : 125 Кбит/сек
Каналы : 2 канала
Расположение каналов : Front: L R
Частота : 88,2 КГц / 44,1 КГц
Частота кадров : 43,066 кадра/сек (1024 spf)
Метод сжатия : С потерями
Задержка видео : -23 мс.
Размер потока : 9,95 Мбайт (6%)
Язык : Russian
Default : Нет
Forced : Нет
Аудио #2
Идентификатор : 3
Формат : AAC
Формат/Информация : Advanced Audio Codec
Профиль формата : LC
Идентификатор кодека : A_AAC
Продолжительность : 11 м. 10 с.
Битрейт : 127 Кбит/сек
Каналы : 2 канала
Расположение каналов : Front: L R
Частота : 44,1 КГц
Частота кадров : 43,066 кадра/сек (1024 spf)
Метод сжатия : С потерями
Задержка видео : -23 мс.
Размер потока : 10,2 Мбайт (6%)
Язык : English
Default : Нет
Forced : Нет
Текст
Идентификатор : 4
Формат : UTF-8
Идентификатор кодека : S_TEXT/UTF8
Идентификатор кодека/Информация : UTF-8 Plain Text
Продолжительность : 9 м. 27 с.
Битрейт : 41 бит/сек
ElementCount : 62
Размер потока : 2,85 Кбайт (0%)
Язык : Russian
Default : Да
Forced : Нет

Скриншоты

Вы не можете начинать темы
Вы не можете отвечать на сообщения
Вы не можете редактировать свои сообщения
Вы не можете удалять свои сообщения
Вы не можете голосовать в опросах
Вы не можете прикреплять файлы к сообщениям
Вы можете скачивать файлы
!ВНИМАНИЕ!

Сайт не предоставляет электронные версии произведений, а занимается лишь коллекционированием и каталогизацией ссылок, присылаемых и публикуемых на форуме нашими читателями. Если вы являетесь правообладателем какого-либо представленного материала и не желаете, чтобы ссылка на него находилась в нашем каталоге, свяжитесь с нами, и мы незамедлительно удалим ее. Файлы для обмена на трекере предоставлены пользователями сайта, и администрация не несет ответственности за их содержание. Просьба не заливать файлы, защищенные авторскими правами, а также файлы нелегального содержания!

Искали программы, игры, дополнения, музыка mp3, аниме, аудио книги, журналы? Добро пожаловать на свободный торрент трекер Torrents, у нас можно скачать бесплатно, без смс и регистрации и прочих ограничений лучшие, отборные сборки программ, игр. Скачать торрентом не составит труда даже не опытному пользователю. Раздачи ежедневно обновляются, только лучшие и качественные раздачи, подробные описания и скриншоты. Огромная коллекция программ для работы со звуком, графикой, дизайном, а так же множество плагинов и инструментов к ним с подробной инструкцией и рекомендациями. Прошивки для навигаторов, карты. Разнообразные игры, для Windows, Linux. В коллекцие есть и старые игры любых жанров, Rpg, Action, Shooter, strategy Множество дополнений, модификаций, сценариев для популярных игр в жанре экш, рпг, гонки, стратегии, логические игры. Множество аддонов и сценариев для Microsoft Flight Simulator Большая коллекция книг, учебников. Если нет возможности купить печатное издание - смело скачивайте цифровую версию книги или, быть может, журнала. Не любите читать - можно загрузить бесплатно аудикнигу. Для веб дизайнеров и программистов так же найдется множество специализированного софта, таких как: редакторы с подсветкой, среды программирования, компоненты, системы управления базами данных, разнообразные скрипты и шаблоны. Не так давно у нас появился материал для автолюбителей и владельцев мото - оригинальные и неоригинальные каталоги запчастей, книги и журналы по ремонту и обслуживанию, видеоуроки, статьи по чип тюнингу, прошивкам. Процедура получения контента элементарная, достаточно просто скачать торрент файл и добавить его в загрузку в вашем торрент клиенте. Если у вас нет специального торрент клиента, вы можете его скачать у нас.

Get The Gringo - 2012 | tagКосмос | The Guardians