Убийцы / The Killers (Дон Сигел / Don Siegel)[1964, США, Триллер, Драма, Криминал, Детектив, DVD9 (Custom)] Dvo, Avo (Л. Володарский) + Sub Eng + Orig Eng / Criterion Collection#176 

Цитировать
Убийцы / The Killers / Criterion Collection#176 «There is more than one way to kill a man!»
Страна:США
Студия:Revue Studios.
Жанр:Триллер, Драма, Криминал, Детектив
Год выпуска:1964
Продолжительность:01:34:44
Производитель:The Criterion Collection#176
Перевод 1:Профессиональный (двухголосый закадровый)Перевод 2:Авторский (одноголосый закадровый) Л. ВолодарскийСубтитры:Английские
Оригинальная аудиодорожка:Английский
Премьера (мир):30.05.1964
Режиссер:Дон Сигел / Don Siegel
В ролях:Ли Марвин, Энджи Дикинсон, Джон Кассаветис, Клу Гулагер, Клод Экинс, Норман Фелл, Рональд Рейган, Вирджиния Кристин, Дон Хэггерти, Роберт Филлипс
Описание:Наёмные убийцы Чарли и Ли убивают бывшего автогонщика Джонни Норта. Они знают, что Норт участвовал в ограблении на миллион долларов и хотят найти этот миллион. А также их интересует вопрос, почему жертва не пыталась от них скрыться. Они узнают о прошлом Джонни Норта, находят его подельников, его возлюбленную и того, кто заказал его убийство.
Доп. информация:Исходник найден в сети.Релиз 2015 года.Dvo взят из раздачи S.V.Ionov - http://rutracker.org/forum/viewtopic.php?t=1476809.Avo Л. Володарский взят из раздачи karlll-http://rutracker.org/forum/viewtopic.php?t=5415995.Music and Effects track взят из раздачи TDiTP_-http://rutracker.org/forum/viewtopic.php?t=3029501.Огромное Спасибо Всем, без чьей помощи этот релиз не состоялся бы!
Сценарий:Джин Л. Кун, Эрнест ХемингуэйПродюсер:Дон Сигел
Оператор:Ричард Л. РоулингсКомпозитор:Джон Уильямс, Фред СтейнерХудожник:Фрэнк Арриго, Джордж Б. Чан, Хелен КолвигМонтаж:Ричард Белдинг

Знаете ли вы, что

Награды и номинации


Рецензия

Софт

PgcDemux 1.2.0.5 -> разделение компонентов диска на файлы.
BeHappy + BeLight - AC3 -> Wav. Minnetonka SurCode - Wav - AC3> .
Sound Forge pro 10 -> синхронизация звука
MuxMan DVD authoring Professional -> мультиплексирование и авторинг.
DVDRemake Pro 3.6.4 -> реавторинг DVD.
DVD Shrink 3.2 -> Сэмпл.--
Точка перехода.

Бонусы:(Без перевода)

--Interview from 2002 with actor Clu Gulager
--Audio excerpt from director Don Siegel’s autobiography, A Siegel Film, read by actor and director Hampton Fancher
--Trailers
Меню:Английский, анимированное, озвученное. Тип релиза:DVD9 (Custom)
Контейнер:DVD-Video
Видео:NTSC 4:3 (720x480) VBR, 8639 Кбит/сек, 23,976 (24000/1001) кадра/сек Аудио 1:Русский:AC3, 2 ch, 48.0 KHz, 192 Кбит/сек / Профессиональный (двухголосый закадровый)Аудио 2:Русский:AC3, 1 ch, 48.0 KHz, 192 Кбит/сек / Авторский (одноголосый закадровый) Л. ВолодарскийАудио 3:Английский:AC3, 1 ch, 48.0 KHz, 384 Кбит/сек / ОригиналАудио 4:Английский:AC3, 1 ch, 48.0 KHz, 96 Кбит/сек / Music and Effects trackФормат субтитров:prerendered (DVD/IDX+SUB)

Dvd Info

Title: The Killer DVD-9_Custom_Criterion#176_1964
Size: 7.91 Gb ( 8 290 502,00 KBytes ) - DVD-9
Enabled regions: 1, 2, 3, 4, 5, 6, 7, 8
VTS_01 :
Play Length: 00:00:00
Video: NTSC 4:3 (720x480) VBR
VTS_02 :
Play Length: 01:34:44
Video: NTSC 4:3 (720x480) VBR
Audio:
Russian (Dolby AC3, 2 ch)
Russian (Dolby AC3, 1 ch)
English (Dolby AC3, 1 ch)
English (Dolby AC3, 1 ch)
Subtitles:
English
VTS_03 :
Play Length: 00:00:01
Video: NTSC 4:3 (720x480) VBR
VTS_04 :
Play Length: 00:19:34
Video: NTSC 4:3 (720x480) VBR
Audio:
English (Dolby AC3, 1 ch)
Subtitles:
English
VTS_05 :
Play Length: 00:18:45
Video: NTSC 4:3 (720x480) VBR
Audio:
English (Dolby AC3, 1 ch)
VTS_06 :
Play Length: 00:02:22
Video: NTSC 4:3 (720x480) VBR
Audio:
English (Dolby AC3, 1 ch)
VTS_07 :
Play Length: 00:03:48
Video: NTSC 4:3 (720x480) VBR
Audio:
English (Dolby AC3, 1 ch)
VTS_08 :
Play Length: 00:00:00
Video: NTSC 4:3 (720x480) VBR

Mediainfo

Общее
Полное имя : F:\The Killer DVD-9_Custom_Criterion#176_1964\VIDEO_TS\VTS_02_3.VOB
Формат : MPEG-PS
Размер файла : 1024 Мбайт
Продолжительность : 14 м. 45 с.
Режим общего битрейта : Переменный
Общий поток : 9696 Кбит/сек
Видео
Идентификатор : 224 (0xE0)
Формат : MPEG Video
Версия формата : Version 2
Профиль формата : Main@Main
Параметр BVOP формата : Да
Параметр матрицы формата : Выборочная
Параметр GOP формата : Variable
Продолжительность : 14 м. 45 с.
Вид битрейта : Переменный
Битрейт : 8639 Кбит/сек
Максимальный битрейт : 9800 Кбит/сек
Ширина : 720 пикселей
Высота : 480 пикселей
Соотношение сторон : 4:3
Частота кадров : 23,976 (24000/1001) кадра/сек
Цветовое пространство : YUV
Субдискретизация насыщенности : 4:2:0
Битовая глубина : 8 бит
Тип развёртки : Прогрессивная
Порядок развёртки : 2:3 Pulldown
Метод сжатия : С потерями
Бит/(Пиксели*Кадры) : 1.043
Временной код первого кадра : 01:29:54:00
Оригинал временного кода : Group of pictures header
Размер потока : 912 Мбайт (89%)
Аудио #1
Идентификатор : 189 (0xBD)-128 (0x80)
Формат : AC-3
Формат/Информация : Audio Coding 3
Расширение режима : CM (complete main)
Параметр Endianness формата : Big
Режим смешивания : DVD-Video
Продолжительность : 14 м. 45 с.
Вид битрейта : Постоянный
Битрейт : 192 Кбит/сек
Каналы : 2 канала
Расположение каналов : Front: L R
Частота : 48,0 КГц
Частота кадров : 31,250 кадров/сек (1536 spf)
Метод сжатия : С потерями
Задержка видео : -529 мс.
Размер потока : 20,3 Мбайт (2%)
Аудио #2
Идентификатор : 189 (0xBD)-129 (0x81)
Формат : AC-3
Формат/Информация : Audio Coding 3
Расширение режима : CM (complete main)
Параметр Endianness формата : Big
Режим смешивания : DVD-Video
Продолжительность : 14 м. 45 с.
Вид битрейта : Постоянный
Битрейт : 192 Кбит/сек
Каналы : 1 канал
Расположение каналов : Front: C
Частота : 48,0 КГц
Частота кадров : 31,250 кадров/сек (1536 spf)
Метод сжатия : С потерями
Задержка видео : -529 мс.
Размер потока : 20,3 Мбайт (2%)
Аудио #3
Идентификатор : 189 (0xBD)-130 (0x82)
Формат : AC-3
Формат/Информация : Audio Coding 3
Расширение режима : CM (complete main)
Параметр Endianness формата : Big
Режим смешивания : DVD-Video
Продолжительность : 14 м. 45 с.
Вид битрейта : Постоянный
Битрейт : 384 Кбит/сек
Каналы : 1 канал
Расположение каналов : Front: C
Частота : 48,0 КГц
Частота кадров : 31,250 кадров/сек (1536 spf)
Метод сжатия : С потерями
Задержка видео : -561 мс.
Размер потока : 40,6 Мбайт (4%)
Аудио #4
Идентификатор : 189 (0xBD)-131 (0x83)
Формат : AC-3
Формат/Информация : Audio Coding 3
Расширение режима : CM (complete main)
Параметр Endianness формата : Big
Режим смешивания : DVD-Video
Продолжительность : 14 м. 45 с.
Вид битрейта : Постоянный
Битрейт : 96,0 Кбит/сек
Каналы : 1 канал
Расположение каналов : Front: C
Частота : 48,0 КГц
Частота кадров : 31,250 кадров/сек (1536 spf)
Метод сжатия : С потерями
Задержка видео : -369 мс.
Размер потока : 10,1 Мбайт (1%)
Текст
Идентификатор : 189 (0xBD)-32 (0x20)
Формат : RLE
Формат/Информация : Run-length encoding
Режим смешивания : DVD-Video
Продолжительность : 14 м. 41 с.
Задержка видео : 2 с. 19 мс.

Скриншоты меню

Скриншоты фильма

Скриншоты доп. материалов


Полиграфия





Релиз: Уважаемые пользователи!Найдите пару минут поблагодарить релизера и высказаться в топике раздачи.Ваше мнение - бальзам для раздающего и пища для ума остальным пользователям.Мои раздачи
Вы не можете начинать темы
Вы не можете отвечать на сообщения
Вы не можете редактировать свои сообщения
Вы не можете удалять свои сообщения
Вы не можете голосовать в опросах
Вы не можете прикреплять файлы к сообщениям
Вы можете скачивать файлы
!ВНИМАНИЕ!

Сайт не предоставляет электронные версии произведений, а занимается лишь коллекционированием и каталогизацией ссылок, присылаемых и публикуемых на форуме нашими читателями. Если вы являетесь правообладателем какого-либо представленного материала и не желаете, чтобы ссылка на него находилась в нашем каталоге, свяжитесь с нами, и мы незамедлительно удалим ее. Файлы для обмена на трекере предоставлены пользователями сайта, и администрация не несет ответственности за их содержание. Просьба не заливать файлы, защищенные авторскими правами, а также файлы нелегального содержания!

Искали программы, игры, дополнения, музыка mp3, аниме, аудио книги, журналы? Добро пожаловать на свободный торрент трекер Torrents, у нас можно скачать бесплатно, без смс и регистрации и прочих ограничений лучшие, отборные сборки программ, игр. Скачать торрентом не составит труда даже не опытному пользователю. Раздачи ежедневно обновляются, только лучшие и качественные раздачи, подробные описания и скриншоты. Огромная коллекция программ для работы со звуком, графикой, дизайном, а так же множество плагинов и инструментов к ним с подробной инструкцией и рекомендациями. Прошивки для навигаторов, карты. Разнообразные игры, для Windows, Linux. В коллекцие есть и старые игры любых жанров, Rpg, Action, Shooter, strategy Множество дополнений, модификаций, сценариев для популярных игр в жанре экш, рпг, гонки, стратегии, логические игры. Множество аддонов и сценариев для Microsoft Flight Simulator Большая коллекция книг, учебников. Если нет возможности купить печатное издание - смело скачивайте цифровую версию книги или, быть может, журнала. Не любите читать - можно загрузить бесплатно аудикнигу. Для веб дизайнеров и программистов так же найдется множество специализированного софта, таких как: редакторы с подсветкой, среды программирования, компоненты, системы управления базами данных, разнообразные скрипты и шаблоны. Не так давно у нас появился материал для автолюбителей и владельцев мото - оригинальные и неоригинальные каталоги запчастей, книги и журналы по ремонту и обслуживанию, видеоуроки, статьи по чип тюнингу, прошивкам. Процедура получения контента элементарная, достаточно просто скачать торрент файл и добавить его в загрузку в вашем торрент клиенте. Если у вас нет специального торрент клиента, вы можете его скачать у нас.

Tang (2) | Lote 75 Peliculas En 25 Dvd Etiqueta Nuevos Precintados | Sword Art Online II: Sword Art Offline II English Subbed