Убийцы / The Killers (Роберт Сьодмак / Robert Siodmak)[1946, США, Триллер, Драма, Криминал, Детектив, DVD9 (Custom)] Mvo, Avo(А. Медведев) + Sub Eng + Orig Eng / Criterion Collection#176 

Цитировать
Убийцы / The Killers / Criterion Collection#176 «THE MOST SUSPENSEFUL PICTURE OF ALL TIME!»
Страна:США
Студия:Mark Hellinger Productions, Universal Pictures.
Жанр:Триллер, Драма, Криминал, Детектив
Год выпуска:1946
Продолжительность:01:42:30
Производитель:The Criterion Collection#176
Перевод 1:Профессиональный (многоголосый закадровый)Перевод 2:Авторский (одноголосый закадровый) А. МедведевСубтитры:Английские
Оригинальная аудиодорожка:Английский
Премьера (мир):28.08.1946
Режиссер:Роберт Сьодмак / Robert Siodmak
В ролях:Берт Ланкастер, Ава Гарднер, Эдмонд О’Брайен, Альберт Деккер, Сэм Ливин, Винс Барнетт, Вирджиния Кристин, Джек Ламберт, Чарльз Д. Браун, Дональд МакБрайд
Описание:От пуль наемных убийц погибает скромный служащий бензоколонки. Страховой агент Реардон расследует это на первый взгляд случайное преступление.
Раскручивая нить жизни погибшего «Шведа», Реардон раскрывает тайну кровавых преступлений и предательств, в центре которых ослепительная женщина-вамп Китти Коллинз. Он слишком близко подходит к давней загадке исчезнувших 250 000 долларов и теперь у него появляется новая задача: выжить!

Доп. информация:Исходник найден в сети.Релиз 2015 года.Mvo взят из раздачи AnryV - http://rutracker.org/forum/viewtopic.php?t=994812.Avo А. Медведев предоставил rulle1.Синхронизация Avo Нордер.Огромное Спасибо Всем, без чьей помощи этот релиз не состоялся бы!
Сценарий:Энтони Вейллер, Джон Хьюстон, Ричард БруксПродюсер:Марк Хеллингер
Оператор:Элвуд БределлКомпозитор:Миклош РожаХудожник:Мартин Обзина, Джек Оттерсон, Расселл А. ГаусманМонтаж:Артур Хилтон

Знаете ли вы, что

Награды и номинации


Рецензия

Софт

PgcDemux 1.2.0.5 -> разделение компонентов диска на файлы.
BeHappy - AC3 -> Wav.
Sound Forge pro 10 -> синхронизация звука.
MuxMan DVD authoring Professional -> мультиплексирование и авторинг.
DVDRemake Pro 3.6.4 -> реавторинг DVD.
DVD Shrink 3.2 -> Сэмпл.--
Точка перехода.

Бонусы:(Без перевода)

--Andrei Tarkovsky’s short film adaptation of Ernest Hemingway’s “The Killers,” made when he was a student in 1956
--Interview from 2002 with writer Stuart M. Kaminsky about both films
--Audio recording from 2002 of actor Stacy Keach reading Hemingway’s short story--Screen Directors’ Playhouse radio adaptation from 1949 of the 1946 film, starring Burt Lancaster and Shelley Winters--Trailersr
Меню:Английский, анимрованное, озвученное. Тип релиза:DVD9 (Custom)
Контейнер:DVD-Video
Видео:NTSC 4:3 (720x480) VBR, 7037 Кбит/сек, 23,976 (24000/1001) кадра/сек Аудио 1:Русский:AC3, 2 ch, 48.0 KHz, 192 Кбит/сек / Профессиональный (многоголосый закадровый)Аудио 2:Русский:AC3, 2 ch, 48.0 KHz, 192 Кбит/сек / Авторский (одноголосый закадровый) А. МедведевАудио 3:Английский:AC3, 1 ch, 48.0 KHz, 384 Кбит/сек / ОригиналФормат субтитров:prerendered (DVD/IDX+SUB)

Dvd Info

Title: The Killer DVD-9_Custom_Criterion#176_1946
Size: 7.94 Gb ( 8 330 114,00 KBytes ) - DVD-9
Enabled regions: 1, 2, 3, 4, 5, 6, 7, 8
VTS_01 :
Play Length: 00:00:00
Video: NTSC 4:3 (720x480) VBR
VTS_02 :
Play Length: 00:20:37
Video: NTSC 4:3 (720x480) VBR
Audio:
Russian (Dolby AC3, 1 ch)
Subtitles:
English
VTS_03 :
Play Length: 01:42:30
Video: NTSC 4:3 (720x480) VBR
Audio:
Russian (Dolby AC3, 2 ch)
Russian (Dolby AC3, 2 ch)
English (Dolby AC3, 1 ch)
Subtitles:
English
VTS_04 :
Play Length: 00:00:20
Video: NTSC 4:3 (720x480) VBR
VTS_05 :
Play Length: 00:29:40
Video: NTSC 4:3 (720x480) VBR
Audio:
English (Dolby AC3, 1 ch)
Subtitles:
English
VTS_06 :
Play Length: 00:17:45
Video: NTSC 4:3 (720x480) VBR
Audio:
English (Dolby AC3, 1 ch)
VTS_07 :
Play Length: 00:10:13+{00:01:37}+{00:02:06}+{00:01:46}+{00:02:25}+{00:02:19}
Video: NTSC 4:3 (720x480) VBR
Audio:
English (Dolby AC3, 1 ch)
VTS_08 :
Play Length: 00:01:53
Video: NTSC 4:3 (720x480) VBR
Audio:
English (Dolby AC3, 1 ch)
VTS_09 :
Play Length: 00:17:43
Video: NTSC 4:3 (720x480) VBR
Audio:
English (Dolby AC3, 1 ch)
Subtitles:
English
VTS_10 :
Play Length: 00:00:00
Video: NTSC 4:3 (720x480) VBR

Mediainfo

Общее
Полное имя : F:\The Killer DVD-9_Custom_Criterion#176_1946\VIDEO_TS\VTS_03_1.VOB
Формат : MPEG-PS
Размер файла : 1024 Мбайт
Продолжительность : 17 м. 58 с.
Режим общего битрейта : Переменный
Общий поток : 7963 Кбит/сек
Видео
Идентификатор : 224 (0xE0)
Формат : MPEG Video
Версия формата : Version 2
Профиль формата : Main@Main
Параметр BVOP формата : Да
Параметр матрицы формата : Выборочная
Параметр GOP формата : Variable
Продолжительность : 17 м. 58 с.
Вид битрейта : Переменный
Битрейт : 7037 Кбит/сек
Максимальный битрейт : 9800 Кбит/сек
Ширина : 720 пикселей
Высота : 480 пикселей
Соотношение сторон : 4:3
Частота кадров : 23,976 (24000/1001) кадра/сек
Цветовое пространство : YUV
Субдискретизация насыщенности : 4:2:0
Битовая глубина : 8 бит
Тип развёртки : Прогрессивная
Порядок развёртки : 2:3 Pulldown
Метод сжатия : С потерями
Бит/(Пиксели*Кадры) : 0.849
Временной код первого кадра : 00:59:48:00
Оригинал временного кода : Group of pictures header
Размер потока : 905 Мбайт (88%)
Аудио #1
Идентификатор : 189 (0xBD)-128 (0x80)
Формат : AC-3
Формат/Информация : Audio Coding 3
Расширение режима : CM (complete main)
Параметр Endianness формата : Big
Режим смешивания : DVD-Video
Продолжительность : 17 м. 58 с.
Вид битрейта : Постоянный
Битрейт : 192 Кбит/сек
Каналы : 2 канала
Расположение каналов : Front: L R
Частота : 48,0 КГц
Частота кадров : 31,250 кадров/сек (1536 spf)
Метод сжатия : С потерями
Размер потока : 24,7 Мбайт (2%)
Аудио #2
Идентификатор : 189 (0xBD)-129 (0x81)
Формат : AC-3
Формат/Информация : Audio Coding 3
Расширение режима : CM (complete main)
Параметр Endianness формата : Big
Режим смешивания : DVD-Video
Продолжительность : 17 м. 58 с.
Вид битрейта : Постоянный
Битрейт : 192 Кбит/сек
Каналы : 2 канала
Расположение каналов : Front: L R
Частота : 48,0 КГц
Частота кадров : 31,250 кадров/сек (1536 spf)
Метод сжатия : С потерями
Размер потока : 24,7 Мбайт (2%)
Аудио #3
Идентификатор : 189 (0xBD)-130 (0x82)
Формат : AC-3
Формат/Информация : Audio Coding 3
Расширение режима : CM (complete main)
Параметр Endianness формата : Big
Режим смешивания : DVD-Video
Продолжительность : 17 м. 58 с.
Вид битрейта : Постоянный
Битрейт : 384 Кбит/сек
Каналы : 1 канал
Расположение каналов : Front: C
Частота : 48,0 КГц
Частота кадров : 31,250 кадров/сек (1536 spf)
Метод сжатия : С потерями
Размер потока : 49,4 Мбайт (5%)
Текст
Идентификатор : 189 (0xBD)-32 (0x20)
Формат : RLE
Формат/Информация : Run-length encoding
Режим смешивания : DVD-Video

Скриншоты меню

Скриншоты фильма

Скриншоты доп. материалов




Полиграфия


Релиз: Уважаемые пользователи!Найдите пару минут поблагодарить релизера и высказаться в топике раздачи.Ваше мнение - бальзам для раздающего и пища для ума остальным пользователям.Мои раздачи
Вы не можете начинать темы
Вы не можете отвечать на сообщения
Вы не можете редактировать свои сообщения
Вы не можете удалять свои сообщения
Вы не можете голосовать в опросах
Вы не можете прикреплять файлы к сообщениям
Вы можете скачивать файлы
!ВНИМАНИЕ!

Сайт не предоставляет электронные версии произведений, а занимается лишь коллекционированием и каталогизацией ссылок, присылаемых и публикуемых на форуме нашими читателями. Если вы являетесь правообладателем какого-либо представленного материала и не желаете, чтобы ссылка на него находилась в нашем каталоге, свяжитесь с нами, и мы незамедлительно удалим ее. Файлы для обмена на трекере предоставлены пользователями сайта, и администрация не несет ответственности за их содержание. Просьба не заливать файлы, защищенные авторскими правами, а также файлы нелегального содержания!

Искали программы, игры, дополнения, музыка mp3, аниме, аудио книги, журналы? Добро пожаловать на свободный торрент трекер Torrents, у нас можно скачать бесплатно, без смс и регистрации и прочих ограничений лучшие, отборные сборки программ, игр. Скачать торрентом не составит труда даже не опытному пользователю. Раздачи ежедневно обновляются, только лучшие и качественные раздачи, подробные описания и скриншоты. Огромная коллекция программ для работы со звуком, графикой, дизайном, а так же множество плагинов и инструментов к ним с подробной инструкцией и рекомендациями. Прошивки для навигаторов, карты. Разнообразные игры, для Windows, Linux. В коллекцие есть и старые игры любых жанров, Rpg, Action, Shooter, strategy Множество дополнений, модификаций, сценариев для популярных игр в жанре экш, рпг, гонки, стратегии, логические игры. Множество аддонов и сценариев для Microsoft Flight Simulator Большая коллекция книг, учебников. Если нет возможности купить печатное издание - смело скачивайте цифровую версию книги или, быть может, журнала. Не любите читать - можно загрузить бесплатно аудикнигу. Для веб дизайнеров и программистов так же найдется множество специализированного софта, таких как: редакторы с подсветкой, среды программирования, компоненты, системы управления базами данных, разнообразные скрипты и шаблоны. Не так давно у нас появился материал для автолюбителей и владельцев мото - оригинальные и неоригинальные каталоги запчастей, книги и журналы по ремонту и обслуживанию, видеоуроки, статьи по чип тюнингу, прошивкам. Процедура получения контента элементарная, достаточно просто скачать торрент файл и добавить его в загрузку в вашем торрент клиенте. Если у вас нет специального торрент клиента, вы можете его скачать у нас.

Alderamin on the Sky | METAL SLUG ATTACK cracked | Coração de Tinta: O Livro Mágico (Inkheart) 2008