Бархатные ручки / Mani di velluto (Франко Кастеллано, Джузеппе Моччиа / Franco Castellano, Giuseppe Moccia) [1979, Италия, Мелодрама, комедия, криминал, BDRip 1080p] MVO + DVO + VO + Sub Rus, Ita + Original Ita 

Цитировать
Бархатные ручки / Mani di velluto
Страна: Италия
Жанр: Мелодрама, комедия, криминал
Год выпуска: 1979
Продолжительность: 01:40:47
    -Перевод 1: Профессиональный (двухголосый закадровый) НТВ
    Перевод 2: Профессиональный (многоголосый закадровый) РТР
    Перевод 3: Одноголосый закадровый Неизвестный Неизвестный
    Субтитры: русские, итальянский
    Оригинальная аудиодорожка: итальянский
      -Режиссер: Франко Кастеллано, Джузеппе Моччиа / Franco Castellano, Giuseppe Moccia
        -В ролях: Адриано Челентано, Элеонора Джорджи, Джон Шарп, Ольга Карлатос, Джино Сантерколе, Мемо Диттонго, Ания Пьерони, Джанкарло Тондинелли, Пиппо Сантонастасо, Джанни Дзулло
        Описание: Инженер Гвидо Квиллер разбогател на продаже бронированных стёкол для ювелирных магазинов, но тем самым разозлил страховые компании и грабителей. Во время погони за возлюбленной, которой он хотел вернуть забытую сумочку, у мопеда отказывают тормоза и он падает в фонтан. В это время едущая за ним на машине семья воров принимает Квиллера с сумкой в руках за дилетанта, укравшего сумочку. После падения Квиллера в фонтан семья воров, не найдя у него при себе документов, решает отвезти его к себе домой. Инженеру приходится притворяться, что он бедный вор, чтобы расположить к себе прекрасную воровку. Но однажды она узнаёт его настоящую профессию.
          -Тип релиза: BDRip 1080p
          Контейнер: MKV
            -Видео: 1920x1040 (1,85:1), 23,976 fps, MPEG-4 AVC, ~ 15400 kbps, 0.323 Bits/(Pixel*Frame)
              -Аудио 1: Russian: 48 kHz/16-bit, AC3, 2.0 ch, 224.00 kbps avg | НТВ
              Аудио 2: Russian: 48 kHz/16-bit, AC3, 2.0 ch, 192.00 kbps avg | РТР
              Аудио 3: Russian: 48 kHz/16-bit, AC3, 2.0 ch, 192.00 kbps avg | VO
              Аудио 4: Italian: 48 kHz/16-bit, AC3, 2.0 ch, 256.00 kbps avg

              Дополнительно

              Релиз HDCLUB.
              Сохранены оригинальные главы как на Blu-ray

              MediaInfo

              Общее
              Уникальный идентификатор : 246841409834526031313570816361713808105 (0xB9B3ED202128313799F13E396492B2E9)
              Полное имя : D:\Mani.di.velluto.BDRip.1080p.mkv
              Формат : Matroska
              Версия формата : Version 4 / Version 2
              Размер файла : 11,5 Гбайт
              Продолжительность : 1 ч. 40 м.
              Общий поток : 16,3 Мбит/сек
              Название фильма : Mani di velluto (1979) HDCLUB
              Дата кодирования : UTC 2017-08-09 11:15:13
              Программа кодирования : mkvmerge v9.3.1 ('Mask Machine') 64bit
              Библиотека кодирования : libebml v1.3.4 + libmatroska v1.4.5
              Видео
              Идентификатор : 1
              Формат : AVC
              Формат/Информация : Advanced Video Codec
              Профиль формата : High@L4.1
              Параметр CABAC формата : Да
              Параметр RefFrames формата : 5 кадров
              Идентификатор кодека : V_MPEG4/ISO/AVC
              Продолжительность : 1 ч. 40 м.
              Битрейт : 15,4 Мбит/сек
              Ширина : 1920 пикселей
              Высота : 1040 пикселей
              Соотношение сторон : 1,85:1
              Режим частоты кадров : Постоянный
              Частота кадров : 23,976 (24000/1001) кадра/сек
              Цветовое пространство : YUV
              Субдискретизация насыщенности : 4:2:0
              Битовая глубина : 8 бит
              Тип развёртки : Прогрессивная
              Бит/(Пиксели*Кадры) : 0.323
              Размер потока : 10,7 Гбайт (93%)
              Заголовок : HD1080P || Released for HDCLUB
              Библиотека кодирования : x264 core 129 M9479+75 64bit by ProCoder[2016.07.08]Japan
              Настройки программы : cabac=1 / ref=5 / deblock=1:-3:-3 / analyse=0x3:0x110 / me=umh / subme=11 / psy=1 / fade_compensate=0.00 / psy_rd=1.30:0.30 / mixed_ref=1 / me_range=48 / chroma_me=1 / trellis=2 / 8x8dct=1 / cqm=0 / deadzone=21,11 / fast_pskip=0 / chroma_qp_offset=-2 / threads=16 / lookahead_threads=4 / sliced_threads=0 / slices=60 / nr=0 / decimate=1 / interlaced=0 / bluray_compat=0 / constrained_intra=0 / fgo=0 / bframes=16 / b_pyramid=2 / b_adapt=2 / b_bias=16 / direct=2 / weightb=1 / open_gop=1 / weightp=2 / keyint=240 / keyint_min=23 / scenecut=40 / intra_refresh=0 / rc_lookahead=40 / rc=2pass / mbtree=0 / bitrate=15444 / ratetol=1.0 / qcomp=0.60 / qpmin=0 / qpmax=69 / qpstep=4 / cplxblur=20.0 / qblur=0.5 / vbv_maxrate=50000 / vbv_bufsize=97500 / nal_hrd=none / ip_ratio=1.35 / pb_ratio=1.25 / aq=3:0.70
              Язык : Italian
              Default : Да
              Forced : Нет
              Цветовой диапазон : Limited
              Основные цвета : BT.709
              Характеристики трансфера : BT.709
              Коэффициенты матрицы : BT.709
              Аудио #1
              Идентификатор : 2
              Формат : AC-3
              Формат/Информация : Audio Coding 3
              Параметр Endianness формата : Big
              Идентификатор кодека : A_AC3
              Продолжительность : 1 ч. 40 м.
              Вид битрейта : Постоянный
              Битрейт : 224 Кбит/сек
              Каналы : 2 канала
              Расположение каналов : Front: L R
              Частота : 48,0 КГц
              Частота кадров : 31,250 кадров/сек (1536 SPF)
              Битовая глубина : 16 бит
              Метод сжатия : С потерями
              Размер потока : 161 Мбайт (1%)
              Заголовок : Многоголосый (НТВ)
              Язык : Russian
              ServiceKind/String : Complete Main
              Default : Да
              Forced : Нет
              Аудио #2
              Идентификатор : 3
              Формат : AC-3
              Формат/Информация : Audio Coding 3
              Параметр Endianness формата : Big
              Идентификатор кодека : A_AC3
              Продолжительность : 1 ч. 40 м.
              Вид битрейта : Постоянный
              Битрейт : 192 Кбит/сек
              Каналы : 2 канала
              Расположение каналов : Front: L R
              Частота : 48,0 КГц
              Частота кадров : 31,250 кадров/сек (1536 SPF)
              Битовая глубина : 16 бит
              Метод сжатия : С потерями
              Размер потока : 138 Мбайт (1%)
              Заголовок : Студия Нота (РТР)
              Язык : Russian
              ServiceKind/String : Complete Main
              Default : Нет
              Forced : Нет
              Аудио #3
              Идентификатор : 4
              Формат : AC-3
              Формат/Информация : Audio Coding 3
              Параметр Endianness формата : Big
              Идентификатор кодека : A_AC3
              Продолжительность : 1 ч. 40 м.
              Вид битрейта : Постоянный
              Битрейт : 192 Кбит/сек
              Каналы : 2 канала
              Расположение каналов : Front: L R
              Частота : 48,0 КГц
              Частота кадров : 31,250 кадров/сек (1536 SPF)
              Битовая глубина : 16 бит
              Метод сжатия : С потерями
              Размер потока : 138 Мбайт (1%)
              Заголовок : Неизвестный боец
              Язык : Russian
              ServiceKind/String : Complete Main
              Default : Нет
              Forced : Нет
              Аудио #4
              Идентификатор : 5
              Формат : AC-3
              Формат/Информация : Audio Coding 3
              Параметр Endianness формата : Big
              Идентификатор кодека : A_AC3
              Продолжительность : 1 ч. 40 м.
              Вид битрейта : Постоянный
              Битрейт : 256 Кбит/сек
              Каналы : 2 канала
              Расположение каналов : Front: L R
              Частота : 48,0 КГц
              Частота кадров : 31,250 кадров/сек (1536 SPF)
              Битовая глубина : 16 бит
              Метод сжатия : С потерями
              Размер потока : 185 Мбайт (2%)
              Язык : Italian
              ServiceKind/String : Complete Main
              Default : Нет
              Forced : Нет
              Текст #1
              Идентификатор : 6
              Формат : UTF-8
              Идентификатор кодека : S_TEXT/UTF8
              Идентификатор кодека/Информация : UTF-8 Plain Text
              Язык : Russian
              Default : Нет
              Forced : Нет
              Текст #2
              Идентификатор : 7
              Формат : UTF-8
              Идентификатор кодека : S_TEXT/UTF8
              Идентификатор кодека/Информация : UTF-8 Plain Text
              Язык : Italian
              Default : Нет
              Forced : Нет
              Меню
              00:00:00.000 : en:(01)00:00:00:000
              00:04:46.828 : en:(02)00:04:46:828
              00:09:22.144 : en:(03)00:09:22:144
              00:15:56.080 : en:(04)00:15:56:080
              00:19:14.361 : en:(05)00:19:14:361
              00:24:38.226 : en:(06)00:24:38:226
              00:34:01.998 : en:(07)00:34:01:998
              00:40:22.002 : en:(08)00:40:22:002
              00:48:57.434 : en:(09)00:48:57:434
              00:56:13.370 : en:(10)00:56:13:370
              01:03:24.258 : en:(11)01:03:24:258
              01:08:38.989 : en:(12)01:08:38:989
              01:14:02.771 : en:(13)01:14:02:771
              01:21:45.817 : en:(14)01:21:45:817
              01:32:06.020 : en:(15)01:32:06:020
              01:39:18.786 : en:(16)01:39:18:786

              Скриншоты

              Вы не можете начинать темы
              Вы не можете отвечать на сообщения
              Вы не можете редактировать свои сообщения
              Вы не можете удалять свои сообщения
              Вы не можете голосовать в опросах
              Вы не можете прикреплять файлы к сообщениям
              Вы можете скачивать файлы
              !ВНИМАНИЕ!

              Сайт не предоставляет электронные версии произведений, а занимается лишь коллекционированием и каталогизацией ссылок, присылаемых и публикуемых на форуме нашими читателями. Если вы являетесь правообладателем какого-либо представленного материала и не желаете, чтобы ссылка на него находилась в нашем каталоге, свяжитесь с нами, и мы незамедлительно удалим ее. Файлы для обмена на трекере предоставлены пользователями сайта, и администрация не несет ответственности за их содержание. Просьба не заливать файлы, защищенные авторскими правами, а также файлы нелегального содержания!

              Искали программы, игры, дополнения, музыка mp3, аниме, аудио книги, журналы? Добро пожаловать на свободный торрент трекер Torrents, у нас можно скачать бесплатно, без смс и регистрации и прочих ограничений лучшие, отборные сборки программ, игр. Скачать торрентом не составит труда даже не опытному пользователю. Раздачи ежедневно обновляются, только лучшие и качественные раздачи, подробные описания и скриншоты. Огромная коллекция программ для работы со звуком, графикой, дизайном, а так же множество плагинов и инструментов к ним с подробной инструкцией и рекомендациями. Прошивки для навигаторов, карты. Разнообразные игры, для Windows, Linux. В коллекцие есть и старые игры любых жанров, Rpg, Action, Shooter, strategy Множество дополнений, модификаций, сценариев для популярных игр в жанре экш, рпг, гонки, стратегии, логические игры. Множество аддонов и сценариев для Microsoft Flight Simulator Большая коллекция книг, учебников. Если нет возможности купить печатное издание - смело скачивайте цифровую версию книги или, быть может, журнала. Не любите читать - можно загрузить бесплатно аудикнигу. Для веб дизайнеров и программистов так же найдется множество специализированного софта, таких как: редакторы с подсветкой, среды программирования, компоненты, системы управления базами данных, разнообразные скрипты и шаблоны. Не так давно у нас появился материал для автолюбителей и владельцев мото - оригинальные и неоригинальные каталоги запчастей, книги и журналы по ремонту и обслуживанию, видеоуроки, статьи по чип тюнингу, прошивкам. Процедура получения контента элементарная, достаточно просто скачать торрент файл и добавить его в загрузку в вашем торрент клиенте. Если у вас нет специального торрент клиента, вы можете его скачать у нас.

              Rare ancien Point Timbre Tintin Clé d'or TBE | CHRISTOFLE rare boite argent massif sterling 925 | Bretelle donna uomo straccali suspenders regolabili elastiche,