Утиный сезон / Sezon na kaczki (Юлия Рушкевич / Julia Ruszkiewicz) [2006, Польша, драма, короткометражный, TVRip] Sub Rus (Professor) + Original Pol 

Цитировать
Утиный сезон / Sezon na kaczki
Страна: Польша
Жанр: драма, короткометражный
Год выпуска: 2006
Продолжительность: 00:18:51-Перевод: Субтитры Professor
Субтитры: русские
Оригинальная аудиодорожка: польский-Режиссер: Юлия Рушкевич / Julia Ruszkiewicz-В ролях: Михал Влодарчик, Камиль Гренда, Ева Гожеляк, Адам Камень, Марьян Дзендзель, Анна Гренда, Доната Трепиньская-Румянек-Описание: Точно подсмотренный мир детей и вопрос: как рассказать родителям о том, что случилось нечто страшное...-Доп. информация:
-

Награды

2006
Paweł Dyllus, оператор
Bydgoszcz (Международный фестиваль операторского искусства "Plus Camerimage")-"Złota Kijanka" в конкурсе студенческих этюдов.
2006
Paweł Dyllus
Bydgoszcz (Международный фестиваль операторского искусства "Plus Camerimage")- Специальное отличие "Panavision" им. Д. Самуэльсона за самый лучший учебный этюд.
2006
Warszawa (Европейская кинонеделя OFF/ON)- отмечен.
2006
Warszawa (Фестиваль студенческих фильмов "Młode kadry/ Young Cinema Art")- отмечен.
2006
Poznań (Международный кинофестиваль "Off Cinema")- отмечен.
2006
Gliwice (Кинофестиваль GOFFR)-I награда в студенческом конкурсе.
2007
Paweł Dyllus
Kraków (Фестиваль "Slamdance on The Road")- награда.
2007
Warszawa (Фестиваль короткометражных фильмов)- отмечен.
2007
Zlin (Международный фестиваль студенческого кино "Zlin Dog")- награда за самый лучший фильм.
2007
Paweł Dyllus
Los Angeles (Фестиваль польских фильмов)- награда за операторскую работу "Kodak Award"
2007
Aubagne (Международный кинофестиваль)- награда "Prix du Fiction"
2007
Lille (Международный конкурс короткометражных фильмов)- гран-при.
-Сэмпл: http://www.sendspace.com/file/hf7k66-Качество видео: TVRip
Формат видео: AVI-Видео: XviD, 624х336, 1.85:1, 25.000 fps, 895 Kbps
Аудио: MP3, 48.0 KHz, 128 Kbps, 2 channels
Формат субтитров: hardsub (неотключаемые)

MediaInfo

General
Complete name : Sezon na kaczki.avi
Format : AVI
Format/Info : Audio Video Interleave
File size : 140 MiB
Duration : 18mn 51s
Overall bit rate : 1 036 Kbps
Video
ID : 0
Format : MPEG-4 Visual
Format profile : Advanced Simple@L5
Format settings, BVOP : 2
Format settings, QPel : No
Format settings, GMC : No warppoints
Format settings, Matrix : Default (H.263)
Codec ID : XVID
Codec ID/Hint : XviD
Duration : 18mn 51s
Bit rate : 895 Kbps
Width : 624 pixels
Height : 336 pixels
Display aspect ratio : 1.85:1
Frame rate : 25.000 fps
Color space : YUV
Chroma subsampling : 4:2:0
Bit depth : 8 bits
Scan type : Progressive
Compression mode : Lossy
Bits/(Pixel*Frame) : 0.171
Stream size : 121 MiB (86%)
Writing library : XviD 65
Audio
ID : 1
Format : MPEG Audio
Format version : Version 1
Format profile : Layer 3
Codec ID : 55
Codec ID/Hint : MP3
Duration : 18mn 50s
Source duration : 18mn 50s
Bit rate mode : Constant
Bit rate : 128 Kbps
Channel(s) : 2 channels
Sampling rate : 48.0 KHz
Compression mode : Lossy
Stream size : 17.3 MiB (12%)
Alignment : Split accross interleaves
Interleave, duration : 24 ms (0.60 video frame)

Скриншот c названием фильма

Скриншоты

Вы не можете начинать темы
Вы не можете отвечать на сообщения
Вы не можете редактировать свои сообщения
Вы не можете удалять свои сообщения
Вы не можете голосовать в опросах
Вы не можете прикреплять файлы к сообщениям
Вы можете скачивать файлы
!ВНИМАНИЕ!

Сайт не предоставляет электронные версии произведений, а занимается лишь коллекционированием и каталогизацией ссылок, присылаемых и публикуемых на форуме нашими читателями. Если вы являетесь правообладателем какого-либо представленного материала и не желаете, чтобы ссылка на него находилась в нашем каталоге, свяжитесь с нами, и мы незамедлительно удалим ее. Файлы для обмена на трекере предоставлены пользователями сайта, и администрация не несет ответственности за их содержание. Просьба не заливать файлы, защищенные авторскими правами, а также файлы нелегального содержания!

Искали программы, игры, дополнения, музыка mp3, аниме, аудио книги, журналы? Добро пожаловать на свободный торрент трекер Torrents, у нас можно скачать бесплатно, без смс и регистрации и прочих ограничений лучшие, отборные сборки программ, игр. Скачать торрентом не составит труда даже не опытному пользователю. Раздачи ежедневно обновляются, только лучшие и качественные раздачи, подробные описания и скриншоты. Огромная коллекция программ для работы со звуком, графикой, дизайном, а так же множество плагинов и инструментов к ним с подробной инструкцией и рекомендациями. Прошивки для навигаторов, карты. Разнообразные игры, для Windows, Linux. В коллекцие есть и старые игры любых жанров, Rpg, Action, Shooter, strategy Множество дополнений, модификаций, сценариев для популярных игр в жанре экш, рпг, гонки, стратегии, логические игры. Множество аддонов и сценариев для Microsoft Flight Simulator Большая коллекция книг, учебников. Если нет возможности купить печатное издание - смело скачивайте цифровую версию книги или, быть может, журнала. Не любите читать - можно загрузить бесплатно аудикнигу. Для веб дизайнеров и программистов так же найдется множество специализированного софта, таких как: редакторы с подсветкой, среды программирования, компоненты, системы управления базами данных, разнообразные скрипты и шаблоны. Не так давно у нас появился материал для автолюбителей и владельцев мото - оригинальные и неоригинальные каталоги запчастей, книги и журналы по ремонту и обслуживанию, видеоуроки, статьи по чип тюнингу, прошивкам. Процедура получения контента элементарная, достаточно просто скачать торрент файл и добавить его в загрузку в вашем торрент клиенте. Если у вас нет специального торрент клиента, вы можете его скачать у нас.

SHIPPED FROM OVERSEAS Generic HP-15000mah Power Bank Portable Mobile Phone with Two USB Interface Charging Bank pink -64% KSh 461 KSh 1,283 (7) Buy now | keynesian economics - 2284 Words | Ensembles de vêtements