Небольшая лихорадка / Un peu de fièvre (Филипп Рейпен / Philippe Reypens) [2003, Бельгия, Короткометражный, DVDRip] VO + Sub Rus + Original Fre 

Цитировать
Небольшая лихорадка / Un peu de fièvre
Страна: Бельгия
Жанр: Короткометражный
Год выпуска: 2003
Продолжительность: 00:18:11
Перевод: Одноголосый закадровый
Субтитры: русские
Оригинальная аудиодорожка: французский
Режиссер: Филипп Рейпен / Philippe Reypens
В ролях: Pierre-Alain Pignolet, Ivan de la Roncière, Jacques de Bock / Жак де Бок, Catherine Bary / Катрин Бари, Kevin Annicaert, Karin Lechner / Карин Лечнер, Louis Clairembourg, Siméon Bourdoux, Alexandre Debrus, Javier Balsera Goñi, Wibert Aerts, Alphons von Aaburg / Альфонс фон Аабург, Zürcher Sängerknaben (choeur de garçons de Zürich) / цюрихский хор мальчиков
Описание: Александр - студент музыкальной академии, он только что закончил последнюю репетицию с виолончелью перед заключительным экзаменом. Учитель побуждает молодого человека заглянуть в прошлое и вспомнить причины выбора своего инструмента. Его память возвращается в дни детства, когда он давал свой последний концерт певчим в хоре.
Доп. информация: Вокальные партии в фильме исполняет Дениел Хеллманн (дискант).
Сэмпл: http://multi-up.com/1019677
Качество видео: DVDRip
Формат видео: AVI
Видео: MPEG-4 Visual at 4623 Кбит/сек : 720 x 384 (1.875) at 23.976 fps
Аудио 1: MPEG Audio at 128 Кбит/сек : 2 канала, 48,0 КГц (Русский)
Аудио 2: MPEG Audio at 128 Кбит/сек : 2 канала, 48,0 КГц (Французский)
Формат субтитров: softsub (SRT)
Доп. информация о субтитрах: Русские внешние (Berendey)

MediaInfo

Общее
Полное имя : F:\С моей озвучкой\Небольшая лихорадка\Un peu de fièvre.avi
Формат : AVI
Формат/Информация : Audio Video Interleave
Размер файла : 636 Мбайт
Продолжительность : 18 м.
Общий поток : 4893 Кбит/сек
Программа кодирования : VirtualDubModRus 1.5.10.2 (build 2542/release)
Библиотека кодирования : VirtualDubMod build 2542/release
Видео
Идентификатор : 0
Формат : MPEG-4 Visual
Профиль формата : Simple@L3
Параметр BVOP формата : 2
Параметр QPel формата : Нет
Параметр GMC формата : Без точки перехода
Параметр матрицы формата : Default (MPEG)
Режим смешивания : Сжатый битовый поток
Идентификатор кодека : XVID
Идентификатор кодека/Подсказка : XviD
Продолжительность : 18 м.
Битрейт : 4623 Кбит/сек
Ширина : 720 пикселей
Высота : 384 пикселя
Соотношение сторон : 1,85:1
Частота кадров : 23,976 кадра/сек
Цветовое пространство : YUV
Субдискретизация насыщенности : 4:2:0
Битовая глубина : 8 бит
Тип развёртки : Прогрессивная
Метод сжатия : С потерями
Бит/(Пиксели*Кадры) : 0.697
Размер потока : 601 Мбайт (94%)
Библиотека кодирования : XviD 1.1.0 Beta2 (UTC 2005-04-04)
Аудио #1
Идентификатор : 1
Формат : MPEG Audio
Версия формата : Version 1
Профиль формата : Layer 3
Режим : Joint stereo
Расширение режима : MS Stereo
Идентификатор кодека : 55
Идентификатор кодека/Подсказка : MP3
Продолжительность : 18 м.
Вид битрейта : Постоянный
Битрейт : 128 Кбит/сек
Каналы : 2 канала
Частота : 48,0 КГц
Метод сжатия : С потерями
Размер потока : 16,6 Мбайт (3%)
Выравнивание : Соединение по промежуткам
Продолжительность промежутка : 42 мс. (1,00 видеокадр)
Время предзагрузки промежутка : 504 мс.
Библиотека кодирования : LAME3.96
Аудио #2
Идентификатор : 2
Формат : MPEG Audio
Версия формата : Version 1
Профиль формата : Layer 3
Режим : Joint stereo
Расширение режима : MS Stereo
Идентификатор кодека : 55
Идентификатор кодека/Подсказка : MP3
Продолжительность : 18 м.
Вид битрейта : Постоянный
Битрейт : 128 Кбит/сек
Каналы : 2 канала
Частота : 48,0 КГц
Метод сжатия : С потерями
Размер потока : 16,6 Мбайт (3%)
Выравнивание : Разделение по промежуткам
Продолжительность промежутка : 42 мс. (1,00 видеокадр)
Время предзагрузки промежутка : 500 мс.

Скриншоты

Вы не можете начинать темы
Вы не можете отвечать на сообщения
Вы не можете редактировать свои сообщения
Вы не можете удалять свои сообщения
Вы не можете голосовать в опросах
Вы не можете прикреплять файлы к сообщениям
Вы можете скачивать файлы
!ВНИМАНИЕ!

Сайт не предоставляет электронные версии произведений, а занимается лишь коллекционированием и каталогизацией ссылок, присылаемых и публикуемых на форуме нашими читателями. Если вы являетесь правообладателем какого-либо представленного материала и не желаете, чтобы ссылка на него находилась в нашем каталоге, свяжитесь с нами, и мы незамедлительно удалим ее. Файлы для обмена на трекере предоставлены пользователями сайта, и администрация не несет ответственности за их содержание. Просьба не заливать файлы, защищенные авторскими правами, а также файлы нелегального содержания!

Искали программы, игры, дополнения, музыка mp3, аниме, аудио книги, журналы? Добро пожаловать на свободный торрент трекер Torrents, у нас можно скачать бесплатно, без смс и регистрации и прочих ограничений лучшие, отборные сборки программ, игр. Скачать торрентом не составит труда даже не опытному пользователю. Раздачи ежедневно обновляются, только лучшие и качественные раздачи, подробные описания и скриншоты. Огромная коллекция программ для работы со звуком, графикой, дизайном, а так же множество плагинов и инструментов к ним с подробной инструкцией и рекомендациями. Прошивки для навигаторов, карты. Разнообразные игры, для Windows, Linux. В коллекцие есть и старые игры любых жанров, Rpg, Action, Shooter, strategy Множество дополнений, модификаций, сценариев для популярных игр в жанре экш, рпг, гонки, стратегии, логические игры. Множество аддонов и сценариев для Microsoft Flight Simulator Большая коллекция книг, учебников. Если нет возможности купить печатное издание - смело скачивайте цифровую версию книги или, быть может, журнала. Не любите читать - можно загрузить бесплатно аудикнигу. Для веб дизайнеров и программистов так же найдется множество специализированного софта, таких как: редакторы с подсветкой, среды программирования, компоненты, системы управления базами данных, разнообразные скрипты и шаблоны. Не так давно у нас появился материал для автолюбителей и владельцев мото - оригинальные и неоригинальные каталоги запчастей, книги и журналы по ремонту и обслуживанию, видеоуроки, статьи по чип тюнингу, прошивкам. Процедура получения контента элементарная, достаточно просто скачать торрент файл и добавить его в загрузку в вашем торрент клиенте. Если у вас нет специального торрент клиента, вы можете его скачать у нас.

Vestes et Manteaux | Accessoires | Responder