Безусловно мертв / Definitely Dead (Йонас Квист Дженсен / Jonas Kvist Jensen) [2012, Дания, короткометражка, боевик, комедия, вестерн, DVDRip] DVO 

Цитировать
--Безусловно мертв / Definitely Dead-- Страна: Дания
Жанр: короткометражка, боевик, комедия, вестерн
Год выпуска: 2012
Продолжительность: 00:17:25
Перевод: Любительский (двухголосый закадровый)
Субтитры: нет
Оригинальная аудиодорожка: нет-Режиссер: Йонас Квист Дженсен / Jonas Kvist Jensen-В ролях: Майя Мюлак, Кэтрин Бэк Ибсен, Мэдс Коудал, Торбен Лундё-Описание: "Безусловно мертв" - короткий вестерн-рассказ о молодой женщине Лекс, усталой от жизни шлюхи из салуна маленького захолустного городка Тупичог. Однажды утром она просыпается рядом с немолодым клиентом, который скончался ночью, что грозит Лекс серьёзными неприятностями.
В самый неподходящий момент появляется ее коллега и соперница Нелли, и девушки решают как выбраться из неприятностей и сохранить деньги клиента. Они должны решить - сотрудничество или смерть поодиночке.- -Возрастное ограничение +16-Качество видео: DVDRip
Формат видео: AVI
Видео: XviD, 720x304 (2,35:1), 25,000 fps, ~1000 kbps
Аудио rus: AC-3, 48 KHz, 2 ch, 192 kbps

Релиз

Релиз: Skyns61
Перевод: Максим Черный и Алексей Крюков
Закадровый текст: DeadSno & den904
Фильм переведен и озвучен специально для 7букв Вестерн группы Джесси Джеймса

MediaInfo

Общее
Полное имя : F:\Films\Definitely Dead\Definitely Dead.avi
Формат : AVI
Формат/Информация : Audio Video Interleave
Размер файла : 150 Мбайт
Продолжительность : 17 м.
Общий поток : 1201 Кбит/сек
Программа кодирования : VirtualDubMod 1.5.10.3 (build 2550/release)
Библиотека кодирования : VirtualDubMod build 2550/release
Видео
Идентификатор : 0
Формат : MPEG-4 Visual
Профиль формата : Advanced Simple@L5
Параметр BVOP формата : 2
Параметр QPel формата : Нет
Параметр GMC формата : Без точки перехода
Параметр матрицы формата : Default (MPEG)
Идентификатор кодека : XVID
Идентификатор кодека/Подсказка : XviD
Продолжительность : 17 м.
Битрейт : 1000 Кбит/сек
Ширина : 720 пикселей
Высота : 304 пикселя
Соотношение сторон : 2,35:1
Частота кадров : 25,000 кадров/сек
Цветовое пространство : YUV
Субдискретизация насыщенности : 4:2:0
Битовая глубина : 8 бит
Тип развёртки : Прогрессивная
Метод сжатия : С потерями
Бит/(Пиксели*Кадры) : 0.183
Размер потока : 125 Мбайт (83%)
Библиотека кодирования : XviD 73
Аудио
Идентификатор : 1
Формат : AC-3
Формат/Информация : Audio Coding 3
Расширение режима : CM (complete main)
Параметр Endianness формата : Big
Идентификатор кодека : 2000
Продолжительность : 17 м.
Вид битрейта : Постоянный
Битрейт : 192 Кбит/сек
Каналы : 2 канала
Расположение каналов : Front: L R
Частота : 48,0 КГц
Метод сжатия : С потерями
Размер потока : 23,9 Мбайт (16%)
Выравнивание : Разделение по промежуткам
Продолжительность промежутка : 40 мс. (1,00 видеокадр)
Время предзагрузки промежутка : 500 мс.

Скриншот c названием фильма

Скриншоты


Вы не можете начинать темы
Вы не можете отвечать на сообщения
Вы не можете редактировать свои сообщения
Вы не можете удалять свои сообщения
Вы не можете голосовать в опросах
Вы не можете прикреплять файлы к сообщениям
Вы можете скачивать файлы
!ВНИМАНИЕ!

Сайт не предоставляет электронные версии произведений, а занимается лишь коллекционированием и каталогизацией ссылок, присылаемых и публикуемых на форуме нашими читателями. Если вы являетесь правообладателем какого-либо представленного материала и не желаете, чтобы ссылка на него находилась в нашем каталоге, свяжитесь с нами, и мы незамедлительно удалим ее. Файлы для обмена на трекере предоставлены пользователями сайта, и администрация не несет ответственности за их содержание. Просьба не заливать файлы, защищенные авторскими правами, а также файлы нелегального содержания!

Искали программы, игры, дополнения, музыка mp3, аниме, аудио книги, журналы? Добро пожаловать на свободный торрент трекер Torrents, у нас можно скачать бесплатно, без смс и регистрации и прочих ограничений лучшие, отборные сборки программ, игр. Скачать торрентом не составит труда даже не опытному пользователю. Раздачи ежедневно обновляются, только лучшие и качественные раздачи, подробные описания и скриншоты. Огромная коллекция программ для работы со звуком, графикой, дизайном, а так же множество плагинов и инструментов к ним с подробной инструкцией и рекомендациями. Прошивки для навигаторов, карты. Разнообразные игры, для Windows, Linux. В коллекцие есть и старые игры любых жанров, Rpg, Action, Shooter, strategy Множество дополнений, модификаций, сценариев для популярных игр в жанре экш, рпг, гонки, стратегии, логические игры. Множество аддонов и сценариев для Microsoft Flight Simulator Большая коллекция книг, учебников. Если нет возможности купить печатное издание - смело скачивайте цифровую версию книги или, быть может, журнала. Не любите читать - можно загрузить бесплатно аудикнигу. Для веб дизайнеров и программистов так же найдется множество специализированного софта, таких как: редакторы с подсветкой, среды программирования, компоненты, системы управления базами данных, разнообразные скрипты и шаблоны. Не так давно у нас появился материал для автолюбителей и владельцев мото - оригинальные и неоригинальные каталоги запчастей, книги и журналы по ремонту и обслуживанию, видеоуроки, статьи по чип тюнингу, прошивкам. Процедура получения контента элементарная, достаточно просто скачать торрент файл и добавить его в загрузку в вашем торрент клиенте. Если у вас нет специального торрент клиента, вы можете его скачать у нас.

The Rack Pack ... | Jawani Phir Nahi Ani | Android Auto