Комбинация / La gagne (Патрис Дебусер / Patrice Deboosere) [2014, Франция, авантюрная драма, короткий метр, DVB] Original (Fre) + Sub (Rus, Eng, Fre, Deu) 

Цитировать
Комбинация
La gagne- Страна: Франция
Жанр: авантюрная драма, короткий метр
Год выпуска: 2014
Продолжительность: 00:11:39
Перевод: Субтитры (перевод А.Вижье, Éclair Media)
Субтитры: русские, английские, французские, немецкие, нидерландские
Оригинальная аудиодорожка: французский
Режиссер: Патрис Дебусер / Patrice DeboosèreВ ролях: Симон Феррант / Simon Ferrante (Michel), Оливье Бенар / Olivier Bénard (Jérôme), Тим Фромон Плакенти / Tim Fromont Placenti (David)
Описание: В бизнесе, как на улице, идет жестокая конуренция. И когда бездомный неожиданно приходит на помощь финансовой акуле, законы джунглей могут рухнуть...
Доп. информация: Hot Bird (13.0°E) TV5MONDE Europe DVB-S
Награды: приз зрительских симпатий Festival international de court-metrage Ciudad de Soria (Espagne) 2015; приз молодежного жюри Festival du Film Court de L’Isle Adam 2015; приз Festival Paul Simon a Binic 2015 лучшему актеру (Simon Ferrante); 4-й приз жюри 28th Festival CLAP89 a Sens 2015.

Качество видео: DVB
Формат видео: MKV
Видео: MPEG Video 2, 720x576@1024x576 (16:9), 25 fps, ~2649 kbps avg, 0.255 bit/pixel
Аудио: MPEG Audio 2, 2 ch, 48 kHz, 192 kbps - французский
Формат субтитров: softsub (SRT)

Пример субтитров

1
00:00:06,121 --> 00:00:09,121
Будьте добры!
2
00:00:12,447 --> 00:00:15,447
Здравствуйте.
3
00:00:18,483 --> 00:00:20,764
Девушка!
Монетку. Ну или улыбку.
4
00:00:20,764 --> 00:00:23,764
Или и то, и другое.
5
00:00:33,962 --> 00:00:36,962
Держитесь.
Вам не слишком тяжело?
6
00:00:39,965 --> 00:00:41,604
Спасибо.
7
00:00:41,604 --> 00:00:44,604
Спасибо.
8
00:00:51,567 --> 00:00:54,567
Вы - чемпионы.
9
00:00:55,516 --> 00:00:57,694
Чемпионы.
10
00:00:57,694 --> 00:01:00,694
Хочешь занять рынок -
надо действовать.
11
00:01:02,050 --> 00:01:04,045
Не тяни.
Пока мы единственные.
12
00:01:04,045 --> 00:01:07,045
-Это отличная возможность.
Возможность.
13
00:01:08,842 --> 00:01:11,842
Я тоже говорю по-английски.
Я люблю доллары.
14
00:01:12,167 --> 00:01:14,122
И Лигу чемпионов.
15
00:01:14,122 --> 00:01:15,485
Вы - чемпионы.
16
00:01:15,485 --> 00:01:18,485
Вы - чемпионы.
17
00:01:20,682 --> 00:01:23,682
КОМБИНАЦИЯ
18
00:01:33,531 --> 00:01:36,531
Знаешь, сколько я взял?
19
00:01:37,482 --> 00:01:39,922
Ты смеешься?
20
00:01:39,922 --> 00:01:41,204
50 штук.

MediaInfo

General
Unique ID : 246615237843542480400299505463690717363 (0xB9885DFC43CC14AC8E445246F1D2E8B3)
Complete name : [apreder]MM_La_gagne(2014)DVB.mkv
Format : Matroska
Format version : Version 2
File size : 242 MiB
Duration : 11 min
Overall bit rate : 2 898 kb/s
Movie name : La Gagne
Released date : 2014-00-00
Encoded date : UTC 2016-08-13 15:44:24
Writing application : mkvmerge v9.3.1 ('Mask Machine') 64bit
Writing library : libebml v1.3.4 + libmatroska v1.4.5
Cover : Yes
Attachments : cover.jpg / small_cover.jpg
ACTOR : Simon Ferrante, Olivier Benard
DIRECTOR : Patrice Deboosиre
GENRE : Short, Drama
KEYWORDS : rutracker.org
LAW_RATING : 16+
Video
ID : 1
Format : MPEG Video
Format version : Version 2
Format profile : Main@Main
Format settings, BVOP : Yes
Format settings, Matrix : Custom
Format settings, GOP : M=4, N=12
Format settings, picture structure : Frame
Codec ID : V_MPEG2
Codec ID/Info : MPEG 1 or 2 Video
Duration : 11 min
Bit rate : 2 649 kb/s
Maximum bit rate : 3 200 kb/s
Width : 720 pixels
Height : 576 pixels
Display aspect ratio : 16:9
Frame rate mode : Constant
Frame rate : 25.000 FPS
Standard : PAL
Color space : YUV
Chroma subsampling : 4:2:0
Bit depth : 8 bits
Scan type : Interlaced
Scan order : Top Field First
Compression mode : Lossy
Bits/(Pixel*Frame) : 0.255
Stream size : 221 MiB (91%)
Default : Yes
Forced : No
Audio
ID : 2
Format : MPEG Audio
Format version : Version 1
Format profile : Layer 2
Mode : Joint stereo
Mode extension : Intensity Stereo + MS Stereo
Codec ID : A_MPEG/L2
Codec ID/Hint : MP2
Duration : 11 min
Bit rate mode : Constant
Bit rate : 192 kb/s
Channel(s) : 2 channels
Sampling rate : 48.0 kHz
Compression mode : Lossy
Stream size : 16.0 MiB (7%)
Language : French
Default : Yes
Forced : No
Text #1
ID : 3
Format : UTF-8
Codec ID : S_TEXT/UTF8
Codec ID/Info : UTF-8 Plain Text
Language : Russian
Default : No
Forced : No
Text #2
ID : 4
Format : UTF-8
Codec ID : S_TEXT/UTF8
Codec ID/Info : UTF-8 Plain Text
Language : English
Default : No
Forced : No
Text #3
ID : 5
Format : UTF-8
Codec ID : S_TEXT/UTF8
Codec ID/Info : UTF-8 Plain Text
Language : French
Default : No
Forced : No
Text #4
ID : 6
Format : UTF-8
Codec ID : S_TEXT/UTF8
Codec ID/Info : UTF-8 Plain Text
Language : German
Default : No
Forced : No
Text #5
ID : 7
Format : UTF-8
Codec ID : S_TEXT/UTF8
Codec ID/Info : UTF-8 Plain Text
Language : Dutch
Default : No
Forced : No

Скриншот c названием фильма

Скриншоты

Резервные скриншоты

- [3'237]
Вы не можете начинать темы
Вы не можете отвечать на сообщения
Вы не можете редактировать свои сообщения
Вы не можете удалять свои сообщения
Вы не можете голосовать в опросах
Вы не можете прикреплять файлы к сообщениям
Вы можете скачивать файлы
!ВНИМАНИЕ!

Сайт не предоставляет электронные версии произведений, а занимается лишь коллекционированием и каталогизацией ссылок, присылаемых и публикуемых на форуме нашими читателями. Если вы являетесь правообладателем какого-либо представленного материала и не желаете, чтобы ссылка на него находилась в нашем каталоге, свяжитесь с нами, и мы незамедлительно удалим ее. Файлы для обмена на трекере предоставлены пользователями сайта, и администрация не несет ответственности за их содержание. Просьба не заливать файлы, защищенные авторскими правами, а также файлы нелегального содержания!

Искали программы, игры, дополнения, музыка mp3, аниме, аудио книги, журналы? Добро пожаловать на свободный торрент трекер Torrents, у нас можно скачать бесплатно, без смс и регистрации и прочих ограничений лучшие, отборные сборки программ, игр. Скачать торрентом не составит труда даже не опытному пользователю. Раздачи ежедневно обновляются, только лучшие и качественные раздачи, подробные описания и скриншоты. Огромная коллекция программ для работы со звуком, графикой, дизайном, а так же множество плагинов и инструментов к ним с подробной инструкцией и рекомендациями. Прошивки для навигаторов, карты. Разнообразные игры, для Windows, Linux. В коллекцие есть и старые игры любых жанров, Rpg, Action, Shooter, strategy Множество дополнений, модификаций, сценариев для популярных игр в жанре экш, рпг, гонки, стратегии, логические игры. Множество аддонов и сценариев для Microsoft Flight Simulator Большая коллекция книг, учебников. Если нет возможности купить печатное издание - смело скачивайте цифровую версию книги или, быть может, журнала. Не любите читать - можно загрузить бесплатно аудикнигу. Для веб дизайнеров и программистов так же найдется множество специализированного софта, таких как: редакторы с подсветкой, среды программирования, компоненты, системы управления базами данных, разнообразные скрипты и шаблоны. Не так давно у нас появился материал для автолюбителей и владельцев мото - оригинальные и неоригинальные каталоги запчастей, книги и журналы по ремонту и обслуживанию, видеоуроки, статьи по чип тюнингу, прошивкам. Процедура получения контента элементарная, достаточно просто скачать торрент файл и добавить его в загрузку в вашем торрент клиенте. Если у вас нет специального торрент клиента, вы можете его скачать у нас.

Robotics;Notes - Revival Legacy | thor ita | All Sports, Fitness & Outdoors