Один день из жизни Адама / Ha\'yom Shel Adam / Adam`s Day (Джонатан Офек / Jonathan Ofek) [2008, Израиль, Драма, короткометражка, DVDRip] VO + Sub Rus + Original Heb 

Цитировать
Один день из жизни Адама / Ha'yom Shel Adam / Adam`s Day
Страна: Израиль
Жанр: Драма, короткометражка
Год выпуска: 2008
Продолжительность: 00:22:28
Перевод: Одноголосый закадровый
Субтитры: русские
Оригинальная аудиодорожка: иврит
Режиссер: Джонатан Офек / Jonathan Ofek
В ролях: Ohad Knoller, Idan Brandeis, Alon Shlain, Yael Zafrir
Описание: 14 летний Адам убегает из дома и отправляеться в дом Йоава, его психолога, который должен вскоре улетать на отдых со своей семьёй. Но Адам разрушает все их планы.
Сэмпл: http://multi-up.com/1032129
Качество видео: DVDRip
Формат видео: MKV
Видео: VP6 at 477 Кбит/сек : 504 x 280 (1.800) at 25.000 fps
Аудио 1: MPEG Audio at 128 Кбит/сек : 2 канала, 44,1 КГц Language: ru
Аудио 2: MPEG Audio at 128 Кбит/сек : 2 канала, 44,1 КГц Language: he
Формат субтитров: softsub (SRT)
Доп. информация о субтитрах: Русские внешние, английские вшитые

MediaInfo

Общее
Уникальный идентификатор : 210254308444864136754655796088307109593 (0x9E2D81C16207EFACAC3961D5622ACED9)
Полное имя : F:\С моей озвучкой\Один день из жизни Адама\Adam`s day.mkv
Формат : Matroska
Версия формата : Version 4 / Version 2
Размер файла : 120 Мбайт
Продолжительность : 22 м.
Общий поток : 748 Кбит/сек
Дата кодирования : UTC 2015-02-09 19:14:02
Программа кодирования : mkvmerge v6.1.0 ('Old Devil') built on Mar 4 2013 09:10:42
Библиотека кодирования : libebml v1.3.0 + libmatroska v1.4.0
Видео
Идентификатор : 1
Формат : VP6
Профиль формата : Heightened Sharpness
Идентификатор кодека : V_MS/VFW/FOURCC / VP6F
Идентификатор кодека/Подсказка : On2
Продолжительность : 22 м.
Битрейт : 477 Кбит/сек
Ширина : 504 пикселя
Высота : 280 пикселей
Соотношение сторон : 16:9
Режим частоты кадров : Постоянный
Частота кадров : 25,000 кадров/сек
Бит/(Пиксели*Кадры) : 0.135
Размер потока : 76,6 Мбайт (64%)
Default : Да
Forced : Нет
Аудио #1
Идентификатор : 2
Формат : MPEG Audio
Версия формата : Version 1
Профиль формата : Layer 3
Режим : Joint stereo
Расширение режима : MS Stereo
Идентификатор кодека : A_MPEG/L3
Идентификатор кодека/Подсказка : MP3
Продолжительность : 22 м.
Вид битрейта : Постоянный
Битрейт : 128 Кбит/сек
Каналы : 2 канала
Частота : 44,1 КГц
Метод сжатия : С потерями
Размер потока : 20,6 Мбайт (17%)
Библиотека кодирования : LAME3.96
Язык : Russian
Default : Да
Forced : Нет
Аудио #2
Идентификатор : 3
Формат : MPEG Audio
Версия формата : Version 1
Профиль формата : Layer 3
Режим : Joint stereo
Расширение режима : MS Stereo
Идентификатор кодека : A_MPEG/L3
Идентификатор кодека/Подсказка : MP3
Продолжительность : 22 м.
Вид битрейта : Постоянный
Битрейт : 128 Кбит/сек
Каналы : 2 канала
Частота : 44,1 КГц
Метод сжатия : С потерями
Размер потока : 20,6 Мбайт (17%)
Язык : Hebrew
Default : Нет
Forced : Нет

Скриншоты

Вы не можете начинать темы
Вы не можете отвечать на сообщения
Вы не можете редактировать свои сообщения
Вы не можете удалять свои сообщения
Вы не можете голосовать в опросах
Вы не можете прикреплять файлы к сообщениям
Вы можете скачивать файлы
!ВНИМАНИЕ!

Сайт не предоставляет электронные версии произведений, а занимается лишь коллекционированием и каталогизацией ссылок, присылаемых и публикуемых на форуме нашими читателями. Если вы являетесь правообладателем какого-либо представленного материала и не желаете, чтобы ссылка на него находилась в нашем каталоге, свяжитесь с нами, и мы незамедлительно удалим ее. Файлы для обмена на трекере предоставлены пользователями сайта, и администрация не несет ответственности за их содержание. Просьба не заливать файлы, защищенные авторскими правами, а также файлы нелегального содержания!

Искали программы, игры, дополнения, музыка mp3, аниме, аудио книги, журналы? Добро пожаловать на свободный торрент трекер Torrents, у нас можно скачать бесплатно, без смс и регистрации и прочих ограничений лучшие, отборные сборки программ, игр. Скачать торрентом не составит труда даже не опытному пользователю. Раздачи ежедневно обновляются, только лучшие и качественные раздачи, подробные описания и скриншоты. Огромная коллекция программ для работы со звуком, графикой, дизайном, а так же множество плагинов и инструментов к ним с подробной инструкцией и рекомендациями. Прошивки для навигаторов, карты. Разнообразные игры, для Windows, Linux. В коллекцие есть и старые игры любых жанров, Rpg, Action, Shooter, strategy Множество дополнений, модификаций, сценариев для популярных игр в жанре экш, рпг, гонки, стратегии, логические игры. Множество аддонов и сценариев для Microsoft Flight Simulator Большая коллекция книг, учебников. Если нет возможности купить печатное издание - смело скачивайте цифровую версию книги или, быть может, журнала. Не любите читать - можно загрузить бесплатно аудикнигу. Для веб дизайнеров и программистов так же найдется множество специализированного софта, таких как: редакторы с подсветкой, среды программирования, компоненты, системы управления базами данных, разнообразные скрипты и шаблоны. Не так давно у нас появился материал для автолюбителей и владельцев мото - оригинальные и неоригинальные каталоги запчастей, книги и журналы по ремонту и обслуживанию, видеоуроки, статьи по чип тюнингу, прошивкам. Процедура получения контента элементарная, достаточно просто скачать торрент файл и добавить его в загрузку в вашем торрент клиенте. Если у вас нет специального торрент клиента, вы можете его скачать у нас.

Keith Jarrett, Gary Peacock, Jack DeJohnette - Changes (2015) [24-192 HD FLAC] | Wege zum Glück Spuren im sand | 近距离击杀 2018 WEB-DL 720P X264 AAC CHS 17 минут