Тайны Смолвиля / Smallville / Сезон 10 / Серии 1-22 (22) [2010-2011, США, WEB-DLRip] (OneFilm) 

Цитировать
-Тайны Смолвиля / Smallville
Сезон 10, Серии 01-22
- Год выпуска: 2010-2011
Страна: США
Жанр: Фантастика, драма
Продолжительность: ~ 00:42:00 x 20 + 01:24:14 x 1
Перевод: любительский многоголосый закадровый [OneFilm]
Русские субтитры: нет
Субтитры: отсутствуют-Режиссёр: Кевин Фэир
В ролях: Том Уэллинг (Tom Welling), Эрика Дьюрэнс (Erica Durance), Эллисон Мэк (Allison Mack), Кессиди Фримэн (Cassidy Freeman), Джон Шнайдер (John Schneider), Джастин Хартли (Justin Hartley), Джон Гловер (John Glover)-Описание: Здесь начинается начало конца. Вступая в свой десятый и заключительный сезон, эта современная интерпретация легендарного происхождения героя продолжает смешивать реализм, действие, романтику и юмор в то время, как Кларк Кент (Том Уэллинг) стремится к своему предназначению.
Кларк вышел из своего самого темного часа, чтобы найти путь к своей судьбе, заслоненный призраками прошлого - тени настоящего пытаются заманить Кларка назад в темноту на каждом шагу. Несмотря на непреодолимые разногласия, достаточно ли силен Кларк, чтобы выбрать свет и занять свое законное место самого могущественного защитника Земли?-Ссылка на предыдущие и альтернативные раздачи: http://rutracker.org/forum/viewforum.php?f=497
Сэмпл: http://multi-up.com/447739
Качество: WEB-DLRip
Формат: AVI
Видео кодек: XviD
Аудио кодек: MP3
Видео: 624x352 (1.77:1), 23.976 fps, XviD MPEG-4 ~1071 kbps avg, 0.20 bit/pixel
Аудио: 48 kHz, MPEG Layer 3, 2 ch, ~128.00 kbps avg - [Русский, OneFilm]
Аудио 2: 48 kHz, MPEG Layer 3, 2 ch, ~128.00 kbps avg - [Английский]--

MI

General
Complete name : D:\Smallville\smallville.s10.web-dlrip.rus.eng\smallville.s10e01.web-dlrip.rus.eng.avi
Format : AVI
Format/Info : Audio Video Interleave
File size : 408 MiB
Duration : 42mn 28s
Overall bit rate : 1 342 Kbps
Writing application : VirtualDubMod 1.5.10.2 (build 2540/release)
Writing library : VirtualDubMod build 2540/release
Video
ID : 0
Format : MPEG-4 Visual
Format profile : Advanced Simple@L5
Format settings, BVOP : 2
Format settings, QPel : No
Format settings, GMC : No warppoints
Format settings, Matrix : Default (MPEG)
Codec ID : XVID
Codec ID/Hint : XviD
Duration : 42mn 28s
Bit rate : 1 072 Kbps
Width : 624 pixels
Height : 352 pixels
Display aspect ratio : 16:9
Frame rate : 23.976 fps
Color space : YUV
Chroma subsampling : 4:2:0
Bit depth : 8 bits
Scan type : Progressive
Compression mode : Lossy
Bits/(Pixel*Frame) : 0.204
Stream size : 326 MiB (80%)
Writing library : XviD 1.2.1 (UTC 2008-12-04)
Audio #1
ID : 1
Format : MPEG Audio
Format version : Version 1
Format profile : Layer 3
Mode : Joint stereo
Mode extension : MS Stereo
Codec ID : 55
Codec ID/Hint : MP3
Duration : 42mn 28s
Bit rate mode : Constant
Bit rate : 128 Kbps
Channel(s) : 2 channels
Sampling rate : 48.0 KHz
Compression mode : Lossy
Stream size : 38.9 MiB (10%)
Alignment : Split accross interleaves
Interleave, duration : 42 ms (1.00 video frame)
Interleave, preload duration : 500 ms
Title : Rus [OneFilmTV]
Audio #2
ID : 2
Format : MPEG Audio
Format version : Version 1
Format profile : Layer 3
Mode : Joint stereo
Mode extension : MS Stereo
Codec ID : 55
Codec ID/Hint : MP3
Duration : 42mn 28s
Bit rate mode : Constant
Bit rate : 128 Kbps
Channel(s) : 2 channels
Sampling rate : 48.0 KHz
Compression mode : Lossy
Stream size : 38.9 MiB (10%)
Alignment : Split accross interleaves
Interleave, duration : 42 ms (1.00 video frame)
Interleave, preload duration : 500 ms
Title : Eng

Скриншоты

Внимание! Раздача ведётся путём добавления новых серий!

Внимание! Раздача ведётся путём добавления новых серий; при каждом добавлении создётся новый торрент. Чтобы начать докачку новой серии, пользователям необходимо сделать следующее:
  • Остановить скачивание,
  • Удалить старый торрент у себя из клиента (старые серии удалять не надо),
  • Скачать новый торрент и запустить его у себя в клиенте вместо старого, при этом указать клиенту путь в старую папку куда и должно происходить скачивание новых серий.
    Ваш клиент при этом должен произвести хеширование (проверку) старой папки (если не производит сам - помогите ему сделать это), и будет докачивать только те серии которых у вас ещё нет. Старые серии при этом не удаляются, а продолжают раздаваться!
    Eсли вы уже удалили старые серии, то предотвратить повторную закачку старых серий можно, отжав галочку в соответсвующих местах при запуске нового торрента.
-Торрент обновлен 31.08.2011. Добавлен финальный эпизод-
Вы не можете начинать темы
Вы не можете отвечать на сообщения
Вы не можете редактировать свои сообщения
Вы не можете удалять свои сообщения
Вы не можете голосовать в опросах
Вы не можете прикреплять файлы к сообщениям
Вы можете скачивать файлы
!ВНИМАНИЕ!

Сайт не предоставляет электронные версии произведений, а занимается лишь коллекционированием и каталогизацией ссылок, присылаемых и публикуемых на форуме нашими читателями. Если вы являетесь правообладателем какого-либо представленного материала и не желаете, чтобы ссылка на него находилась в нашем каталоге, свяжитесь с нами, и мы незамедлительно удалим ее. Файлы для обмена на трекере предоставлены пользователями сайта, и администрация не несет ответственности за их содержание. Просьба не заливать файлы, защищенные авторскими правами, а также файлы нелегального содержания!

Искали программы, игры, дополнения, музыка mp3, аниме, аудио книги, журналы? Добро пожаловать на свободный торрент трекер Torrents, у нас можно скачать бесплатно, без смс и регистрации и прочих ограничений лучшие, отборные сборки программ, игр. Скачать торрентом не составит труда даже не опытному пользователю. Раздачи ежедневно обновляются, только лучшие и качественные раздачи, подробные описания и скриншоты. Огромная коллекция программ для работы со звуком, графикой, дизайном, а так же множество плагинов и инструментов к ним с подробной инструкцией и рекомендациями. Прошивки для навигаторов, карты. Разнообразные игры, для Windows, Linux. В коллекцие есть и старые игры любых жанров, Rpg, Action, Shooter, strategy Множество дополнений, модификаций, сценариев для популярных игр в жанре экш, рпг, гонки, стратегии, логические игры. Множество аддонов и сценариев для Microsoft Flight Simulator Большая коллекция книг, учебников. Если нет возможности купить печатное издание - смело скачивайте цифровую версию книги или, быть может, журнала. Не любите читать - можно загрузить бесплатно аудикнигу. Для веб дизайнеров и программистов так же найдется множество специализированного софта, таких как: редакторы с подсветкой, среды программирования, компоненты, системы управления базами данных, разнообразные скрипты и шаблоны. Не так давно у нас появился материал для автолюбителей и владельцев мото - оригинальные и неоригинальные каталоги запчастей, книги и журналы по ремонту и обслуживанию, видеоуроки, статьи по чип тюнингу, прошивкам. Процедура получения контента элементарная, достаточно просто скачать торрент файл и добавить его в загрузку в вашем торрент клиенте. Если у вас нет специального торрент клиента, вы можете его скачать у нас.

Giocattoli di novità | IMDb: 8 S3E3 The Good Place - Season 3 | Privacy Messenger Pro v3.6.4 APK Cracked