Тайны Смолвиля / Smallville Сезон 3 эпизод 1-22(22)(James Marshall)[2003, США, фантастика, драма WEB-DLRip 400p](СТС) 

Цитировать
-Тайны Смолвиля / Smallville
Год выпуска: 2003
Страна: США
Жанр: фантастика, драма
Продолжительность: ~45 мин.
Перевод: Профессиональный многоголосый закадровый(СТС)
Субтитры: нет-Режиссер: Джеймс Маршалл / James Marshall, Грег Биман / Greg Beeman, Майк Рол / Mike Rohl
Сценарий: Альфред Гоу / Alfred Gough, Майлз Миллар / Miles Millar, Джо Шустер / Joe Shuster, Джерри Сигел / Jerry Siegel, Тим МакКэнлис / Tim McCanlies
Продюсер: Тим Скэнлэн / Tim Scanlan, Joe Davola, Брайан Роббинс / Brian Robbins, Майкл Толлин / Michael Tollin, Альфред Гоу / Alfred Gough
Оператор: Глен Винтер / Glen Winter, Бэрри Донлеви / Barry Donlevy, Attila Szalay, Дэвид Мокснесс / David Moxness, Гордон Верхел / Gordon Verheul
Композитор: Марк Сноу / Mark Snow, Луи Фебре / Louis Febre
-В ролях:
Том Уэллинг (Clark Kent), Эллисон Мэк (Chloe Sullivan), Кристин Кройк (Lana Lang,), Майкл Розенбаум (Lex Luthor), Джон Гловер (Lionel Luthor), Аннетт О`Тул (Martha Kent), Джон Шнайдер (Jonathan Kent), Сэм Джонс III (Pete Ross)
Описание:
1989 год, метеоритный дождь в городе Смолвиль наносит невиданные разрушения, а в бездетной семье жителей Смолвиля странным образом появляется маленький ребёнок - Кларк Кент.
Прошло много лет. Кларк уже учится в школе. Его ошеломляющие способности заставляют его чаще задуматься о том, кто он собственно такой. К тому же он влюблен в одноклассницу - Лана Лэнг, чьи родители пропали во время метеоритного дождя. Этот фактор значительно осложняет их отношения. Внимательные родители Кларка пытаются любым путём сберечь его секрет, даже возбраняют ему выступать в школьной футбольной команде.
Однажды Кларк спас жизнь молодого бизнесмена Лекса Лютера, когда машина бизнесмена, потеряв управление, падает с моста в реку. С этого обстоятельства и завязывается череда многообразных похождений супермена - Кларка Кента.
-Качество: WEB-DLRip
Формат: AVI
Видео кодек: XviD
Аудио кодек: AC3
Видео: 720x400 (1.80:1), 23.976 fps, XviD build 62 ~1998 kbps avg, 0.29 bit/pixel
Аудио Rus: 48 kHz, AC3 Dolby Digital, 2/0 (L,R) ch, ~192 kbps
Аудио Eng: 48 kHz, AC3 Dolby Digital, 2/0 (L,R) ch, ~192 kbps
-Рип: sgu-ltg
Работа со звуком: Tom Soyer- -Все раздачи сериала-

MI

General
Complete name : D:\Smallville Season 3 WEB-DLRip\Smallville.s03e01.rus.eng.avi
Format : AVI
Format/Info : Audio Video Interleave
File size : 740 MiB
Duration : 43mn 7s
Overall bit rate : 2 398 Kbps
Writing application : VirtualDubMod 1.5.10.2 (build 2542/release)
Writing library : VirtualDubMod build 2542/release
Video
ID : 0
Format : MPEG-4 Visual
Format profile : Advanced Simple@L5
Format settings, BVOP : Yes
Format settings, QPel : No
Format settings, GMC : No warppoints
Format settings, Matrix : Default (MPEG)
Codec ID : XVID
Codec ID/Hint : XviD
Duration : 43mn 7s
Bit rate : 2 000 Kbps
Width : 720 pixels
Height : 400 pixels
Display aspect ratio : 16:9
Frame rate : 23.976 fps
Color space : YUV
Chroma subsampling : 4:2:0
Bit depth : 8 bits
Scan type : Progressive
Bits/(Pixel*Frame) : 0.290
Stream size : 617 MiB (83%)
Writing library : XviD 62
Audio #1
ID : 1
Format : AC-3
Format/Info : Audio Coding 3
Mode extension : CM (complete main)
Codec ID : 2000
Duration : 43mn 7s
Bit rate mode : Constant
Bit rate : 192 Kbps
Channel(s) : 2 channels
Channel positions : Front: L R
Sampling rate : 48.0 KHz
Bit depth : 16 bits
Stream size : 59.2 MiB (8%)
Alignment : Split accross interleaves
Interleave, duration : 42 ms (1.00 video frame)
Interleave, preload duration : 500 ms
Audio #2
ID : 2
Format : AC-3
Format/Info : Audio Coding 3
Mode extension : CM (complete main)
Codec ID : 2000
Duration : 43mn 7s
Bit rate mode : Constant
Bit rate : 192 Kbps
Channel(s) : 2 channels
Channel positions : Front: L R
Sampling rate : 48.0 KHz
Bit depth : 16 bits
Stream size : 59.2 MiB (8%)
Alignment : Split accross interleaves
Interleave, duration : 42 ms (1.00 video frame)
Interleave, preload duration : 500 ms
Список серий

Скриншоты

Внимание! Раздача ведётся путём добавления новых серий!

Внимание! Раздача ведётся путём добавления новых серий; при каждом добавлении создётся новый торрент. Чтобы начать докачку новой серии, пользователям необходимо сделать следующее: (1) остановить скачивание, (2) удалить старый торрент у себя из клиента (старые серии удалять не надо), (3) скачать новый торрент и запустить его у себя в клиенте вместо старого, при этом указать клиенту путь в старую папку куда и должно происходить скачивание новых серий.
Ваш клиент при этом должен произвести хеширование (проверку) старой папки (если не производит сам - помогите ему сделать это), и будет докачивать только те серии которых у вас ещё нет. Старые серии при этом не удаляются, а продолжают раздаваться!
Eсли вы уже удалили старые серии, то предотвратить повторную закачку старых серий можно, отжав галочку в соответсвующих местах при запуске нового торрента.
Как закачать отдельный файл из торрента или докачать ранее пропущенные файлы торрента!
Вы не можете начинать темы
Вы не можете отвечать на сообщения
Вы не можете редактировать свои сообщения
Вы не можете удалять свои сообщения
Вы не можете голосовать в опросах
Вы не можете прикреплять файлы к сообщениям
Вы можете скачивать файлы
!ВНИМАНИЕ!

Сайт не предоставляет электронные версии произведений, а занимается лишь коллекционированием и каталогизацией ссылок, присылаемых и публикуемых на форуме нашими читателями. Если вы являетесь правообладателем какого-либо представленного материала и не желаете, чтобы ссылка на него находилась в нашем каталоге, свяжитесь с нами, и мы незамедлительно удалим ее. Файлы для обмена на трекере предоставлены пользователями сайта, и администрация не несет ответственности за их содержание. Просьба не заливать файлы, защищенные авторскими правами, а также файлы нелегального содержания!

Искали программы, игры, дополнения, музыка mp3, аниме, аудио книги, журналы? Добро пожаловать на свободный торрент трекер Torrents, у нас можно скачать бесплатно, без смс и регистрации и прочих ограничений лучшие, отборные сборки программ, игр. Скачать торрентом не составит труда даже не опытному пользователю. Раздачи ежедневно обновляются, только лучшие и качественные раздачи, подробные описания и скриншоты. Огромная коллекция программ для работы со звуком, графикой, дизайном, а так же множество плагинов и инструментов к ним с подробной инструкцией и рекомендациями. Прошивки для навигаторов, карты. Разнообразные игры, для Windows, Linux. В коллекцие есть и старые игры любых жанров, Rpg, Action, Shooter, strategy Множество дополнений, модификаций, сценариев для популярных игр в жанре экш, рпг, гонки, стратегии, логические игры. Множество аддонов и сценариев для Microsoft Flight Simulator Большая коллекция книг, учебников. Если нет возможности купить печатное издание - смело скачивайте цифровую версию книги или, быть может, журнала. Не любите читать - можно загрузить бесплатно аудикнигу. Для веб дизайнеров и программистов так же найдется множество специализированного софта, таких как: редакторы с подсветкой, среды программирования, компоненты, системы управления базами данных, разнообразные скрипты и шаблоны. Не так давно у нас появился материал для автолюбителей и владельцев мото - оригинальные и неоригинальные каталоги запчастей, книги и журналы по ремонту и обслуживанию, видеоуроки, статьи по чип тюнингу, прошивкам. Процедура получения контента элементарная, достаточно просто скачать торрент файл и добавить его в загрузку в вашем торрент клиенте. Если у вас нет специального торрент клиента, вы можете его скачать у нас.

Travelers | Nyuru Nyuru!! Kakusen-kun | 1x872 Acacias 38