Тайны Смолвиля / Smallville / Сезон 9 / Полный [2009-2010, США, Канада, DVDRip] (Smart`s Studios) 

Цитировать
Тайны Смолвиля 9-ый сезон / Smallville 9th season
Год выпуска: 2009-2010
Страна: США/Канада
Жанр: фантастика
Продолжительность: 00:42:00
Перевод: любительский многоголосый закадровый [Smart`s Studios & Swan]
Русские субтитры: нет
Субтитры: отсутствуют
Режиссёр: James Marshall, Greg Beeman, Mike Rohl
В ролях: Том Уэллинг, Эллисон Мэк, Эрика Дьюрэнс, Кессиди Фримэн, Кэллум Блю, Джастин Хартли
Описание: После событий восьмого сезона Кларк берет на себя бремя защитника Метрополиса, скрываясь под маской Красно-Синего Пятна, он остается в тени, передвигаясь с невероятной скоростью и путешествуя по крышам, он становится известным как "Пятно". В то же время идет и внутренняя борьба Кларка- он чувствует что должен совершить выбор между своим криптонским наследием и человеческой природой, ведь в этом году ему предстоит столкнуться с самыми сильными врагами вселенной комиксов.
В этом сезоне мы увидим Металло (Брайн Остин Грин)- человека с криптонитовым сердцем, Рулетку (Стеф Сонг), возвращение Игрушечного Мастера (Toyman) и молодого майора Зода, который прибыл на Землю со своей армией. В девятом сезоне мы так же увидим "Общество Справедливости Америки" (“Justice Society of America”), в эпизоде известного писателя комиксов Джеффа Джонса.
Ссылка на предыдущие и альтернативные раздачи: http://rutracker.org/forum/viewforum.php?f=497
Сэмпл: http://multi-up.com/436157
Качество: DVDRip
Формат: AVI
Видео кодек: XviD
Аудио кодек: MP3
Видео: 624x352 (1.77:1), 23.976 fps, XviD build 50 ~1528 kbps avg, 0.29 bit/pixel
Аудио: 44.100 kHz, MPEG Layer 3, 2 ch, ~128.00 kbps avg [русский, Smart`s Studios]
Аудио 2: 48 kHz, MPEG Layer 3, 2 ch, ~126.92 kbps avg [Английский]

MI

General
Complete name : D:\Smallville\smallville.s09.dvdrip.rus.eng\smallville.s09e01.dvdrip.rus.eng.avi
Format : AVI
Format/Info : Audio Video Interleave
File size : 391 MiB
Duration : 42mn 15s
Overall bit rate : 1 293 Kbps
Writing application : VirtualDubMod 1.5.10.2 (build 2540/release)
Writing library : VirtualDubMod build 2540/release
Video
ID : 0
Format : MPEG-4 Visual
Format profile : Advanced Simple@L5
Format settings, BVOP : 2
Format settings, QPel : No
Format settings, GMC : No warppoints
Format settings, Matrix : Default (H.263)
Codec ID : XVID
Codec ID/Hint : XviD
Duration : 42mn 15s
Bit rate : 1 020 Kbps
Width : 624 pixels
Height : 352 pixels
Display aspect ratio : 16:9
Frame rate : 23.976 fps
Color space : YUV
Chroma subsampling : 4:2:0
Bit depth : 8 bits
Scan type : Progressive
Compression mode : Lossy
Bits/(Pixel*Frame) : 0.194
Stream size : 308 MiB (79%)
Writing library : XviD 1.2.1 (UTC 2008-12-04)
Audio #1
ID : 1
Format : MPEG Audio
Format version : Version 1
Format profile : Layer 3
Mode : Joint stereo
Mode extension : MS Stereo
Codec ID : 55
Codec ID/Hint : MP3
Duration : 42mn 15s
Bit rate mode : Constant
Bit rate : 128 Kbps
Channel(s) : 2 channels
Sampling rate : 44.1 KHz
Compression mode : Lossy
Stream size : 38.7 MiB (10%)
Alignment : Split accross interleaves
Interleave, duration : 42 ms (1.00 video frame)
Interleave, preload duration : 500 ms
Title : Rus [Smart`s Studios]
Audio #2
ID : 2
Format : MPEG Audio
Format version : Version 1
Format profile : Layer 3
Mode : Joint stereo
Mode extension : MS Stereo
Codec ID : 55
Codec ID/Hint : MP3
Duration : 42mn 15s
Bit rate mode : Variable
Bit rate : 128 Kbps
Channel(s) : 2 channels
Sampling rate : 48.0 KHz
Compression mode : Lossy
Stream size : 38.4 MiB (10%)
Alignment : Aligned on interleaves
Interleave, duration : 24 ms (0.58 video frame)
Interleave, preload duration : 145 ms
Title : Eng
Writing library : LAME3.90.
Encoding settings : -m j -V 4 -q 2 -lowpass 17.6 --abr 128

Скриншоты

Релиз

Рип: CLUE
Перевод: Swan
Озвучка: Smart`s Studios
Синхронизация: Tom Soyer
Торрент обновлен (24.02.2011 19:40 MSK). Добавлены серии 20-22P.S.: Это мой первый опыт по синхронизированию дорожек, так что просьба за косяки сильно не бить
Вы не можете начинать темы
Вы не можете отвечать на сообщения
Вы не можете редактировать свои сообщения
Вы не можете удалять свои сообщения
Вы не можете голосовать в опросах
Вы не можете прикреплять файлы к сообщениям
Вы можете скачивать файлы
!ВНИМАНИЕ!

Сайт не предоставляет электронные версии произведений, а занимается лишь коллекционированием и каталогизацией ссылок, присылаемых и публикуемых на форуме нашими читателями. Если вы являетесь правообладателем какого-либо представленного материала и не желаете, чтобы ссылка на него находилась в нашем каталоге, свяжитесь с нами, и мы незамедлительно удалим ее. Файлы для обмена на трекере предоставлены пользователями сайта, и администрация не несет ответственности за их содержание. Просьба не заливать файлы, защищенные авторскими правами, а также файлы нелегального содержания!

Искали программы, игры, дополнения, музыка mp3, аниме, аудио книги, журналы? Добро пожаловать на свободный торрент трекер Torrents, у нас можно скачать бесплатно, без смс и регистрации и прочих ограничений лучшие, отборные сборки программ, игр. Скачать торрентом не составит труда даже не опытному пользователю. Раздачи ежедневно обновляются, только лучшие и качественные раздачи, подробные описания и скриншоты. Огромная коллекция программ для работы со звуком, графикой, дизайном, а так же множество плагинов и инструментов к ним с подробной инструкцией и рекомендациями. Прошивки для навигаторов, карты. Разнообразные игры, для Windows, Linux. В коллекцие есть и старые игры любых жанров, Rpg, Action, Shooter, strategy Множество дополнений, модификаций, сценариев для популярных игр в жанре экш, рпг, гонки, стратегии, логические игры. Множество аддонов и сценариев для Microsoft Flight Simulator Большая коллекция книг, учебников. Если нет возможности купить печатное издание - смело скачивайте цифровую версию книги или, быть может, журнала. Не любите читать - можно загрузить бесплатно аудикнигу. Для веб дизайнеров и программистов так же найдется множество специализированного софта, таких как: редакторы с подсветкой, среды программирования, компоненты, системы управления базами данных, разнообразные скрипты и шаблоны. Не так давно у нас появился материал для автолюбителей и владельцев мото - оригинальные и неоригинальные каталоги запчастей, книги и журналы по ремонту и обслуживанию, видеоуроки, статьи по чип тюнингу, прошивкам. Процедура получения контента элементарная, достаточно просто скачать торрент файл и добавить его в загрузку в вашем торрент клиенте. Если у вас нет специального торрент клиента, вы можете его скачать у нас.

Facteur Cheval | [ElegantAngel]Ava Addams - Big Wet Milf Tits 2 (NEW***11 30 2018) added by diebullen23 59.382k* | Tarjeta Regalo de Amazon.es en un estuche - Envío 1 día...